<?xml version="1.0" standalone="no"?>
<!DOCTYPE svg PUBLIC "-//W3C//DTD SVG 1.1//EN" "http://www.w3.org/Graphics/SVG/1.1/DTD/svg11.dtd" >
<svg xmlns="http://www.w3.org/2000/svg" xmlns:xlink="http://www.w3.org/1999/xlink" version="1.1">
<metadata>
Created by FontForge 20201107 at Sat May  2 11:00:07 2020
 By Unknown
Copyright (c) 2020 by Connary Fagen. All rights reserved.
</metadata>
<defs>
<font id="QuincyCF-Black" horiz-adv-x="325" >
  <font-face 
    font-family="Quincy CF Black"
    font-weight="400"
    font-stretch="normal"
    units-per-em="1000"
    panose-1="0 0 10 0 0 0 0 0 0 0"
    ascent="764"
    descent="-236"
    x-height="451"
    cap-height="621"
    bbox="-278.526 -330 1152 921"
    underline-thickness="50"
    underline-position="-150"
    unicode-range="U+0020-FB02"
  />
<missing-glyph horiz-adv-x="515" 
d="M422 800v-1030h-326v1030h326zM343 731h-170v-34h67v-38h-68v-34h171v34h-68v38h68v34zM275 598h-103v-107h171v35h-68v72zM240 563v-37h-34v37h34zM343 463h-171v-34h68v-38h-68v-34h103v72h68v34zM343 401h-34v-68h-137v-35h171v103zM343 276h-103v-58h35v24h34v-49
h-103v83h-34v-117h171v117zM343 98h-171v-117h171v117zM309 64v-49h-103v49h103zM343 -43h-171v-34h72l-72 -48v-34h171v34h-105l72 48h33v34z" />
    <glyph glyph-name="fi" unicode="fi" horiz-adv-x="710" 
d="M32 0v39q41 2 56 16.5t15 51.5v250q0 24 -6.5 32t-24.5 8h-52v32q44 6 63.5 15.5t19.5 32.5q0 96 63.5 150.5t165.5 54.5q69 0 120 -25.5t51 -71.5q0 -26 -16 -45t-53 -19q-34 0 -57.5 19.5t-33 42.5t-24.5 42.5t-35 19.5t-25.5 -21t-5.5 -82v-63q0 -20 12.5 -26.5
t51.5 -6.5h69v-51l-69 2q-39 1 -51.5 -7t-12.5 -35v-248q0 -38 18 -52t71 -16v-39h-310zM409 0v39q36 2 50 17t14 55v229q0 33 -16 44t-47 8v39l163 27q50 7 50 -40v-307q0 -40 13.5 -55t48.5 -17v-39h-276z" />
    <glyph glyph-name="fl" unicode="fl" horiz-adv-x="688" 
d="M571 -6q-49 0 -79.5 28t-30.5 82v342q0 80 -35.5 139.5t-98.5 59.5q-74 0 -74 -106v-60q0 -20 12.5 -26.5t51.5 -6.5h69v-51l-69 2q-39 1 -51.5 -7t-12.5 -35v-248q0 -38 18 -52t71 -16v-39h-310v39q41 2 56 16.5t15 51.5v250q0 24 -6.5 32t-24.5 8h-52v32
q44 6 63.5 15.5t19.5 32.5v7q0 92 71.5 145t183.5 53q36 0 69.5 -5t68 -19.5t59 -37t40.5 -60t16 -85.5v-373q0 -26 10.5 -39t31.5 -4v-22q-16 -43 -82 -43z" />
    <glyph glyph-name=".notdef" horiz-adv-x="515" 
d="M422 800v-1030h-326v1030h326zM343 731h-170v-34h67v-38h-68v-34h171v34h-68v38h68v34zM275 598h-103v-107h171v35h-68v72zM240 563v-37h-34v37h34zM343 463h-171v-34h68v-38h-68v-34h103v72h68v34zM343 401h-34v-68h-137v-35h171v103zM343 276h-103v-58h35v24h34v-49
h-103v83h-34v-117h171v117zM343 98h-171v-117h171v117zM309 64v-49h-103v49h103zM343 -43h-171v-34h72l-72 -48v-34h171v34h-105l72 48h33v34z" />
    <glyph glyph-name=".null" horiz-adv-x="0" 
 />
    <glyph glyph-name="nonmarkingreturn" horiz-adv-x="333" 
 />
    <glyph glyph-name="space" unicode=" " horiz-adv-x="185" 
 />
    <glyph glyph-name="exclam" unicode="!" horiz-adv-x="262" 
d="M96 216q-2 83 -26.5 189t-24.5 147q0 38 25 61.5t61 23.5q38 0 62 -23t24 -62q0 -41 -24 -147t-26 -189h-71zM131 -6q-32 0 -55 23.5t-23 55.5t23 55.5t55 23.5t55.5 -23.5t23.5 -55.5t-23.5 -55.5t-55.5 -23.5z" />
    <glyph glyph-name="quotedbl" unicode="&#x22;" horiz-adv-x="391" 
d="M103 434q-44 0 -49 30l-18 112q-7 42 11.5 63t55.5 21q79 0 65 -84l-18 -112q-5 -30 -47 -30zM290 434q-44 0 -49 30l-18 112q-7 42 11.5 63t55.5 21q79 0 65 -84l-18 -112q-5 -30 -47 -30z" />
    <glyph glyph-name="numbersign" unicode="#" horiz-adv-x="554" 
d="M529 424h-119l-53 -207h103v-54h-117l-50 -193h-56l50 193h-101l-50 -193h-56l50 193h-105v54h119l53 207h-103v54h117l50 194h56l-50 -194h101l50 194h56l-50 -194h105v-54zM301 217l53 207h-101l-53 -207h101z" />
    <glyph glyph-name="dollar" unicode="$" horiz-adv-x="528" 
d="M494 224q0 -44 -19.5 -76.5t-53 -50t-69 -26t-75.5 -9.5v-62h-33v63q-54 3 -106 18.5t-79 33.5q-22 47 -19.5 97t38.5 50q9 0 13.5 -5t9.5 -20q19 -52 58 -83.5t85 -40.5v157q-5 1 -14 3.5t-13 4.5q-74 21 -123.5 68t-49.5 117q0 76 57 118t143 44v64h33v-65
q50 -3 100 -16t74 -29q22 -47 19.5 -97t-37.5 -50q-9 0 -13.5 5t-10.5 20q-18 49 -54 80t-78 40v-163l11 -3q42 -12 71.5 -24t64 -33.5t52.5 -54t18 -75.5zM169 512q0 -55 75 -86v154q-39 -1 -57 -21t-18 -47zM277 110q79 0 79 62q0 55 -79 87v-149z" />
    <glyph glyph-name="percent" unicode="%" horiz-adv-x="722" 
d="M545 621h67l-421 -621h-121l432 565q-25 -20 -54.5 -24.5t-49.5 0t-56 16.5q8 -20 8 -49q0 -76 -49.5 -125t-124.5 -49q-64 0 -95 33t-31 86q0 75 49.5 125t125.5 50q45 0 92 -11.5t75 -20.5t68.5 -5t84.5 30zM191 378q29 0 44 35.5t15 87.5q0 83 -41 83q-29 0 -44 -35.5
t-15 -87.5q0 -83 41 -83zM547 283q64 0 94.5 -33t30.5 -86q0 -76 -49.5 -125.5t-124.5 -49.5q-65 0 -95.5 33t-30.5 87q0 75 50 124.5t125 49.5zM512 33q29 0 44 35.5t15 87.5q0 83 -40 83q-29 0 -44 -35.5t-15 -87.5q0 -83 40 -83z" />
    <glyph glyph-name="ampersand" unicode="&#x26;" horiz-adv-x="811" 
d="M354 -10q-134 0 -224 55t-90 155q0 79 49.5 122.5t101.5 43.5q-40 7 -64 39t-24 76q0 71 63 113.5t158 42.5q80 0 127.5 -29t47.5 -80q0 -32 -20.5 -51.5t-50.5 -19.5q-27 0 -46.5 18t-19.5 47q0 28 -12.5 50t-41.5 22q-33 0 -49 -25.5t-16 -63.5q0 -114 91 -143l-17 -40
q-54 15 -86 -20.5t-32 -98.5q0 -30 7.5 -57.5t25 -53.5t50.5 -41.5t78 -15.5t76.5 15t47 39.5t22 48.5t6.5 50q0 40 -16 66.5t-50 26.5t-46 -25.5t8 -47.5h-42q-27 22 -27 47q0 23 16 40t50 35l110 61q62 33 88.5 56t26.5 56q0 34 -22.5 49.5t-58.5 5.5l-18 34q38 29 101 29
q55 0 97 -31t42 -84q0 -32 -18.5 -61.5t-41 -47.5t-62.5 -37t-60 -26.5t-56 -19.5q134 -22 136 -128q1 -87 -90.5 -141.5t-224.5 -54.5z" />
    <glyph glyph-name="quotesingle" unicode="'" horiz-adv-x="204" 
d="M103 434q-44 0 -49 30l-18 112q-7 42 11.5 63t55.5 21q79 0 65 -84l-18 -112q-5 -30 -47 -30z" />
    <glyph glyph-name="parenleft" unicode="(" horiz-adv-x="363" 
d="M283 -166q-11 0 -19 7q-219 142 -219 455t219 455q8 7 19 7h40q10 0 13.5 -4t-1.5 -9q-62 -79 -101.5 -198t-38.5 -251q-1 -130 37.5 -247.5t97.5 -196.5q14 -18 -5 -18h-42z" />
    <glyph glyph-name="parenright" unicode=")" horiz-adv-x="363" 
d="M80 -166h-42q-17 0 -5 18q60 78 98 196t37 248q1 132 -38.5 251.5t-101.5 197.5q-5 5 -1.5 9t13.5 4h40q11 0 19 -7q219 -141 219 -455t-219 -455q-8 -7 -19 -7z" />
    <glyph glyph-name="asterisk" unicode="*" horiz-adv-x="329" 
d="M154 520l-30 78q4 34 40 39q36 -5 40 -39l-31 -78q-2 -6 -5.5 -8.5t-7.5 0t-6 8.5zM123 489l-80 18q-27 20 -13 54q22 28 54 14l55 -67q7 -7 1 -14t-17 -5zM206 489q-11 -2 -17 5t1 14l55 67q31 13 54 -14q14 -33 -13 -54zM84 387q-32 -14 -54 14q-14 34 13 55l81 17
q10 2 15.5 -5t-1.5 -14zM245 387l-54 67q-7 7 -1.5 14t15.5 5l81 -17q26 -22 13 -55q-23 -27 -54 -14zM164 327q-36 5 -40 39l30 78q4 10 10 10t10 -10l30 -78q-4 -34 -40 -39z" />
    <glyph glyph-name="plus" unicode="+" horiz-adv-x="470" 
d="M420 276v-49h-160v-161h-49v161h-161v49h161v161h49v-161h160z" />
    <glyph glyph-name="comma" unicode="," horiz-adv-x="234" 
d="M95 -137l-25 28q55 48 55 83q0 15 -18 15q-34 0 -55.5 22.5t-21.5 56.5q0 36 24 60t62 24q43 0 65.5 -29t22.5 -77q0 -107 -109 -183z" />
    <glyph glyph-name="hyphen" unicode="-" horiz-adv-x="370" 
d="M50 205v91h270v-91h-270z" />
    <glyph glyph-name="period" unicode="." horiz-adv-x="237" 
d="M118 -6q-32 0 -55 23.5t-23 55.5t23 55.5t55 23.5t55.5 -23.5t23.5 -55.5t-23.5 -55.5t-55.5 -23.5z" />
    <glyph glyph-name="slash" unicode="/" horiz-adv-x="433" 
d="M35 0l267 641h96l-267 -641h-96z" />
    <glyph glyph-name="zero" unicode="0" horiz-adv-x="636" 
d="M318 -10q-128 0 -205.5 93.5t-77.5 230.5q0 136 77.5 229.5t205.5 93.5t205.5 -93.5t77.5 -229.5q0 -137 -77.5 -230.5t-205.5 -93.5zM327 45q116 0 116 243q0 81 -12.5 144.5t-44 106.5t-79.5 43q-115 0 -115 -244q0 -80 12.5 -143t43.5 -106.5t79 -43.5z" />
    <glyph glyph-name="one" unicode="1" horiz-adv-x="390" 
d="M30 0v44q53 2 72 16.5t19 50.5v355q0 23 -8 31t-29 6l-48 -3v44l184 81q17 7 34 1.5t17 -17.5v-498q0 -36 19 -50.5t70 -16.5v-44h-330z" />
    <glyph glyph-name="two" unicode="2" horiz-adv-x="588" 
d="M40 0q0 52 18.5 98.5t48 82t65 68.5t71 62.5t65 57.5t48 60.5t18.5 65.5q0 38 -21 66.5t-63 28.5q-39 0 -62 -25t-23 -66q0 -15 6.5 -39.5t6.5 -38.5q0 -31 -23.5 -47t-54.5 -16q-42 0 -67.5 27.5t-25.5 75.5q0 81 70.5 128.5t181.5 47.5q106 0 173.5 -45t67.5 -129
q0 -54 -32 -95t-84 -69t-106.5 -52t-110.5 -57t-85 -70h217q81 0 118 14t47 53h44l-17 -124q-8 -47 4 -63h-495z" />
    <glyph glyph-name="three" unicode="3" horiz-adv-x="613" 
d="M294 -10q-108 0 -183.5 45.5t-75.5 125.5q0 39 20.5 58.5t52.5 19.5q29 0 45.5 -11t20 -24t7 -36.5t7.5 -35.5q8 -20 19 -38.5t37.5 -38.5t58.5 -20q56 0 85.5 50t29.5 110q0 55 -27.5 89t-72.5 34q-36 0 -63 -19l-15 40q82 28 110.5 60t28.5 86q0 106 -97 106
q-48 0 -63 -26.5t-15 -74.5q0 -33 -18.5 -52t-52.5 -19q-32 0 -48.5 21.5t-16.5 50.5q0 55 56 100.5t173 45.5q108 0 164.5 -40t56.5 -105q0 -48 -29.5 -77.5t-71.5 -39.5q57 1 106.5 -41.5t49.5 -121.5q0 -99 -80.5 -160.5t-198.5 -61.5z" />
    <glyph glyph-name="four" unicode="4" horiz-adv-x="603" 
d="M228 0v44q46 2 63.5 16.5t17.5 50.5v56h-263l-21 76l288 394l146 -16v-343h104v-111h-104v-56q0 -36 17.5 -50.5t61.5 -16.5v-44h-310zM149 278h160v278l-178 -243q-10 -14 -4.5 -24.5t22.5 -10.5z" />
    <glyph glyph-name="five" unicode="5" horiz-adv-x="590" 
d="M290 -10q-105 0 -180 45.5t-75 123.5q0 40 20.5 60t52.5 20q29 0 45.5 -11t20 -24t7 -36.5t7.5 -35.5q35 -97 110 -97q95 0 95 162q0 82 -36.5 132t-97.5 50q-38 0 -76.5 -20t-60.5 -59h-36l24 325h300l82 14l-15 -147h-332l-8 -117q65 53 173 53q35 0 68 -6.5t66 -21.5
t57 -38.5t39 -60t15 -82.5q0 -111 -73 -170t-192 -59z" />
    <glyph glyph-name="six" unicode="6" horiz-adv-x="578" 
d="M300 -10q-128 0 -197 83t-68 227q1 148 77.5 242.5t211.5 94.5q92 0 141 -40l-23 -36q-58 26 -95 26q-159 0 -159 -231q2 1 19.5 12t32 18.5t42 15t56.5 7.5q52 0 98 -19.5t79 -67t33 -115.5q0 -103 -70.5 -160t-177.5 -57zM304 35q37 0 60.5 24.5t30.5 55t7 68.5
q0 74 -29 119.5t-82 45.5q-54 0 -79.5 -40.5t-25.5 -101.5q0 -40 9 -75.5t37 -65.5t72 -30z" />
    <glyph glyph-name="seven" unicode="7" horiz-adv-x="557" 
d="M123 0l300 489h-166q-79 0 -114.5 -13t-71.5 -47h-36l66 200l88 -8h343l-319 -621h-90z" />
    <glyph glyph-name="eight" unicode="8" horiz-adv-x="600" 
d="M291 -10q-116 0 -186 47t-70 130q0 100 118 144q-81 65 -81 147q0 88 69.5 133.5t161.5 45.5q86 0 151 -38t65 -112q0 -101 -115 -135q161 -51 161 -172q0 -90 -77 -140t-197 -50zM312 387q52 -18 74.5 10t22.5 76q0 20 -4 38t-14.5 37.5t-32 31.5t-52.5 12
q-48 0 -69 -28t-21 -65q0 -78 87 -108zM303 35q61 0 84.5 32.5t23.5 73.5q0 32 -21 57.5t-88 50.5l-28 10q-28 10 -49 11.5t-33 -6t-19.5 -15.5t-10 -23t-3 -22t-0.5 -19v-4q0 -58 36 -102t108 -44z" />
    <glyph glyph-name="nine" unicode="9" horiz-adv-x="578" 
d="M278 637q128 0 197 -83t68 -227q-1 -148 -77.5 -242.5t-211.5 -94.5q-90 0 -141 40l24 36q58 -26 94 -26q159 0 159 231q-2 -1 -19 -12t-32 -18.5t-42 -15t-56 -7.5q-84 0 -147.5 51t-63.5 151q0 103 70.5 160t177.5 57zM274 592q-37 0 -60.5 -24.5t-30.5 -55t-7 -68.5
q0 -73 29 -119t82 -46q54 0 79.5 40.5t25.5 101.5q0 40 -9 75.5t-37 65.5t-72 30z" />
    <glyph glyph-name="colon" unicode=":" horiz-adv-x="238" 
d="M118 305q-32 0 -55 23t-23 56q0 32 23 55t55 23t55.5 -23t23.5 -55q0 -33 -23.5 -56t-55.5 -23zM119 -6q-32 0 -55 23.5t-23 55.5t23 55.5t55 23.5t55.5 -23.5t23.5 -55.5t-23.5 -55.5t-55.5 -23.5z" />
    <glyph glyph-name="semicolon" unicode=";" horiz-adv-x="234" 
d="M117 304q-32 0 -55 23t-23 56q0 32 23 55t55 23t55 -23t23 -55q0 -33 -23 -56t-55 -23zM95 -137l-25 28q55 48 55 83q0 15 -18 15q-34 0 -55.5 22.5t-21.5 56.5q0 36 24 60t62 24q43 0 65.5 -29t22.5 -77q0 -107 -109 -183z" />
    <glyph glyph-name="less" unicode="&#x3c;" horiz-adv-x="480" 
d="M430 61l-380 156v69l380 155v-50l-335 -140l335 -140v-50z" />
    <glyph glyph-name="equal" unicode="=" horiz-adv-x="470" 
d="M50 317v49h370v-49h-370zM50 137v49h370v-49h-370z" />
    <glyph glyph-name="greater" unicode="&#x3e;" horiz-adv-x="480" 
d="M50 61v50l335 140l-335 140v50l380 -155v-69z" />
    <glyph glyph-name="question" unicode="?" horiz-adv-x="510" 
d="M217 202q-8 48 2.5 86.5t30.5 63t41.5 45t37.5 44t16 49.5q0 35 -26.5 62t-69.5 27q-34 0 -59.5 -16t-25.5 -50q0 -27 17.5 -57t17.5 -44q0 -29 -22 -47t-51 -18q-37 0 -64 29t-27 84q0 77 60 127t164 50q95 0 155.5 -43.5t60.5 -117.5q0 -40 -19 -72t-47 -53.5
t-56.5 -41.5t-50 -47t-24.5 -60h-61zM248 -6q-32 0 -55 23.5t-23 55.5t23 55.5t55 23.5t55.5 -23.5t23.5 -55.5t-23.5 -55.5t-55.5 -23.5z" />
    <glyph glyph-name="at" unicode="@" horiz-adv-x="779" 
d="M386 -83q-155 0 -255.5 96t-100.5 236q0 139 102.5 235t258.5 96t257 -92t101 -229q0 -95 -45 -148.5t-124 -53.5q-94 0 -121 61q-18 -26 -50.5 -43.5t-71.5 -17.5q-50 0 -87.5 26.5t-37.5 75.5q0 94 184 119q38 7 38 32q0 86 -49 86q-16 0 -24 -20.5t-8 -43.5
q0 -19 -21 -33t-45 -14q-26 0 -42 15t-16 41q0 44 57.5 71t126.5 27q147 0 147 -138v-166q0 -28 23 -28q36 0 36 136q0 118 -63.5 205.5t-164.5 87.5q-104 0 -166.5 -74.5t-62.5 -193.5q0 -126 65 -216.5t183 -90.5q56 0 111 16l13 -35q-48 -25 -148 -25zM384 117
q18 0 34 12.5t16 42.5v39q0 32 -33 26q-26 -6 -42.5 -25.5t-16.5 -41.5q0 -24 11.5 -38.5t30.5 -14.5z" />
    <glyph glyph-name="A" unicode="A" horiz-adv-x="734" 
d="M20 0v40q43 10 64.5 35t43.5 75l160 355q29 64 29 116l88 8l212 -456q6 -13 16 -35t14 -31t12.5 -23.5t15 -21t16.5 -13t23 -10.5v-39h-298v40q75 13 38 90l-7 12q-7 21 -52 21h-144q-43 0 -57 -30l3 4q-34 -79 69 -97v-40h-246zM256 215h132q8 0 12 6t0 19l-71 151
q-5 13 -9 13t-9 -12l-71 -159q-2 -8 3.5 -13t12.5 -5z" />
    <glyph glyph-name="B" unicode="B" horiz-adv-x="708" 
d="M30 0v40q76 9 76 67v406q0 60 -76 68v40h309q293 0 293 -148q0 -108 -147 -131q183 -26 183 -163q0 -85 -67.5 -132t-175.5 -47q-21 0 -98.5 5.5t-155 5.5t-141.5 -11zM339 363h26q47 0 67 29.5t20 70.5q0 52 -27 80.5t-76 28.5h-10q-64 0 -64 -61v-88q0 -60 64 -60z
M320 54h35q133 0 133 126q0 135 -168 135q-20 0 -32.5 -15.5t-12.5 -44.5v-163q0 -38 45 -38z" />
    <glyph glyph-name="C" unicode="C" horiz-adv-x="674" 
d="M374 -10q-143 0 -243.5 87.5t-100.5 237.5q0 148 100 235t252 87q119 0 190 -52.5t71 -122.5q0 -38 -23 -65t-69 -27q-44 0 -67 25.5t-25 63.5q-3 60 -29.5 98.5t-80.5 38.5q-65 0 -99.5 -58.5t-32.5 -158.5q1 -143 72.5 -220t166.5 -77q90 0 153 70l30 -25
q-27 -50 -94 -93.5t-171 -43.5z" />
    <glyph glyph-name="D" unicode="D" horiz-adv-x="737" 
d="M30 0v40q76 9 76 67v406q0 60 -76 68v40h308q182 0 270.5 -75.5t88.5 -229.5q0 -82 -27 -143.5t-64.5 -93t-88 -50.5t-84.5 -23t-68 -4q-19 0 -89 3.5t-104 3.5q-63 0 -142 -9zM337 52q84 0 128.5 73t44.5 191q0 126 -47.5 191t-114.5 65h-9q-64 0 -64 -61v-402
q0 -57 62 -57z" />
    <glyph glyph-name="E" unicode="E" horiz-adv-x="630" 
d="M30 0v40q76 9 76 67v407q0 59 -76 67v40h508q13 0 14 -10q7 -68 21 -133h-25q-28 49 -55 71t-69 22h-85q-64 0 -64 -65v-105q0 -62 64 -62h40q58 0 78 15.5t26 58.5h22v-198h-22q-6 42 -26 57.5t-78 15.5h-40q-64 0 -64 -62v-113q0 -63 53 -65l108 1q43 1 68.5 14.5
t46.5 41.5l24 35h25q-21 -47 -30 -126q-2 -14 -16 -14h-524z" />
    <glyph glyph-name="F" unicode="F" horiz-adv-x="603" 
d="M30 0v40q76 9 76 67v407q0 59 -76 67v40h508q13 0 14 -10q7 -68 21 -133h-25q-28 49 -55 71t-69 22h-85q-64 0 -64 -65v-105q0 -62 64 -62h40q58 0 78 14t26 50h22v-178h-22q-7 35 -27 49t-77 14h-40q-64 0 -64 -62v-119q0 -58 86 -67v-40h-331z" />
    <glyph glyph-name="G" unicode="G" horiz-adv-x="722" 
d="M366 -10q-135 0 -235.5 87.5t-100.5 235.5q0 149 100 236.5t252 87.5q118 0 190 -51.5t72 -116.5q0 -36 -23 -63.5t-66 -27.5t-65.5 24t-24.5 60q-4 58 -33 96t-83 38q-64 0 -98 -58.5t-34 -155.5q0 -147 76 -243t157 -96q23 0 28.5 11.5t5.5 43.5v72q0 57 -16 72t-71 20
v26l300 1v-27q-40 -6 -51.5 -21t-11.5 -71v-77q0 -62 5 -93q-31 19 -63 21.5t-58 -5.5t-69 -17t-83 -9z" />
    <glyph glyph-name="H" unicode="H" horiz-adv-x="763" 
d="M733 581q-76 -8 -76 -67v-407q0 -58 76 -67v-40h-321v40q76 9 76 67v140q0 16 -14 24t-34 8h-117q-20 0 -34 -8t-14 -24v-140q0 -58 76 -67v-40h-321v40q76 9 76 67v407q0 59 -76 67v40h321v-40q-76 -8 -76 -67v-153q0 -32 49 -32h115q49 0 49 32v153q0 59 -76 67v40h321
v-40z" />
    <glyph glyph-name="I" unicode="I" horiz-adv-x="381" 
d="M30 0v40q76 9 76 67v407q0 59 -76 67v40h321v-40q-76 -8 -76 -67v-407q0 -58 76 -67v-40h-321z" />
    <glyph glyph-name="J" unicode="J" horiz-adv-x="506" 
d="M174 -10q-82 0 -138 33t-56 93q0 42 24.5 64.5t61.5 22.5q38 0 55 -25.5t17 -59.5q0 -89 44 -89q48 0 48 86v399q0 60 -85 67v40h331v-40q-76 -8 -76 -67v-323q0 -60 -21.5 -102t-57.5 -62t-71.5 -28.5t-75.5 -8.5z" />
    <glyph glyph-name="K" unicode="K" horiz-adv-x="775" 
d="M602 147q64 -93 148 -107v-40h-355v40q33 11 42 26.5t-10 50.5l-43 83q-12 18 -21 28.5t-19.5 17.5t-20.5 4.5t-20 -14.5q-13 -15 -19 -28t-7 -21.5t-2 -26.5v-53q0 -58 76 -67v-40h-321v40q76 9 76 67v407q0 59 -76 67v40h321v-40q-76 -8 -76 -67v-233l227 235
q22 23 9.5 41.5t-49.5 23.5v40h255v-40q-37 -5 -82.5 -25.5t-67.5 -43.5l-83 -85q-25 -25 -26.5 -44t18.5 -50z" />
    <glyph glyph-name="L" unicode="L" horiz-adv-x="628" 
d="M30 0v40q76 9 76 67v407q0 59 -76 67v40h321v-40q-76 -8 -76 -67v-407q0 -65 87 -59l57 3q50 2 77.5 17t49.5 50l24 39h38l-14 -59q-14 -56 -10 -98h-554z" />
    <glyph glyph-name="M" unicode="M" horiz-adv-x="888" 
d="M30 0v40q81 10 81 67v407q0 29 -21.5 46t-59.5 21v40h244l175 -373l164 373h245v-40q-76 -8 -76 -67v-407q0 -58 76 -67v-40h-321v40q75 9 75 67v363l-188 -422h-47l-201 426v-367q0 -57 84 -67v-40h-230z" />
    <glyph glyph-name="N" unicode="N" horiz-adv-x="736" 
d="M30 0v40q81 10 81 67v407q0 29 -21.5 46t-59.5 21v40h191l339 -376v269q0 29 -22 46t-60 21v40h228v-40q-38 -4 -60 -21t-22 -46v-514h-62l-386 429v-322q0 -57 83 -67v-40h-229z" />
    <glyph glyph-name="O" unicode="O" horiz-adv-x="729" 
d="M362 -10q-86 0 -160 34.5t-123 109t-49 174.5q0 102 49 178.5t124.5 113.5t164.5 37q86 0 159.5 -34.5t122.5 -108t49 -172.5q0 -103 -49 -180.5t-124 -114.5t-164 -37zM391 42q52 0 89 54t37 164q0 137 -52 231t-127 94q-52 0 -88.5 -53.5t-36.5 -162.5
q0 -138 52 -232.5t126 -94.5z" />
    <glyph glyph-name="P" unicode="P" horiz-adv-x="668" 
d="M30 0v40q76 9 76 67v407q0 59 -76 67v40h322q144 0 217.5 -53t73.5 -147q0 -92 -74 -146t-217 -54h-22q-30 0 -42.5 -13.5t-12.5 -45.5v-55q0 -58 86 -67v-40h-331zM330 273h22q127 0 127 146q0 152 -127 152h-19q-58 0 -58 -65v-174q0 -32 12.5 -45.5t42.5 -13.5z" />
    <glyph glyph-name="Q" unicode="Q" horiz-adv-x="729" 
d="M629 20q35 0 55 -22t20 -54q0 -42 -50.5 -76t-126.5 -34q-90 0 -170 66l-114 99q-21 21 -33 16t-17 -16t-5 -22q0 -28 -20.5 -45t-49.5 -17t-45 19t-16 46q0 63 82 85q-109 89 -109 243q0 102 49 178.5t124.5 113.5t164.5 37q86 0 159.5 -34.5t122.5 -108t49 -172.5
q0 -138 -81.5 -224.5t-202.5 -103.5l71 -59q54 -45 63.5 -43.5t9.5 53.5q0 33 19 54t51 21zM338 585q-52 0 -88.5 -53.5t-36.5 -162.5q0 -138 52 -232.5t126 -94.5q52 0 89 54t37 164q0 137 -52 231t-127 94z" />
    <glyph glyph-name="R" unicode="R" horiz-adv-x="724" 
d="M30 0v40q76 9 76 67v407q0 59 -76 67v40h366q113 0 182 -44t69 -126q0 -60 -42.5 -104t-122.5 -50q-5 0 -5 -6.5t5 -7.5q51 -14 79.5 -40t53.5 -92q2 -5 10 -24t13.5 -30.5t15.5 -26.5t22.5 -22.5t27.5 -7.5v-40h-75q-63 0 -103 20.5t-63 55t-51 102.5q-21 48 -39 67.5
t-49 19.5q-49 0 -49 -56v-102q0 -58 86 -67v-40h-331zM330 321h24q63 0 91 40.5t28 89.5q0 47 -24 83.5t-72 36.5h-56q-46 0 -46 -65v-127q0 -31 12.5 -44.5t42.5 -13.5z" />
    <glyph glyph-name="S" unicode="S" horiz-adv-x="597" 
d="M301 -10q-67 0 -136 19t-103 42q-16 38 -21.5 76t5 65.5t37.5 27.5q11 0 15.5 -6t11.5 -23q26 -70 82 -108t118 -39q50 -1 72 20t22 52q0 48 -40.5 73.5t-119.5 48.5q-85 25 -142 78.5t-57 133.5q0 90 69.5 138.5t172.5 48.5q60 0 127.5 -15.5t98.5 -37.5
q16 -38 21.5 -76t-5 -65.5t-37.5 -27.5q-11 0 -15.5 6t-11.5 23q-25 68 -77.5 105t-107.5 37q-47 0 -69.5 -23t-22.5 -55q0 -43 34.5 -70t103.5 -47q38 -11 65 -20.5t62 -28t56.5 -40t37 -54t15.5 -72.5q0 -52 -24 -90.5t-64.5 -58t-83 -28.5t-89.5 -9z" />
    <glyph glyph-name="T" unicode="T" horiz-adv-x="680" 
d="M147 0v40q59 4 83.5 20.5t24.5 48.5v392q0 44 -12.5 55t-54.5 11q-51 0 -75 -24t-47 -89h-41l20 147q2 25 25 22q22 -2 55 -2h430q33 0 55 2q23 3 25 -22l20 -147h-41q-24 65 -48 89t-75 24q-42 0 -54 -11t-12 -55v-392q0 -32 24 -48.5t83 -20.5v-40h-385z" />
    <glyph glyph-name="U" unicode="U" horiz-adv-x="752" 
d="M382 -10q-129 0 -205 70t-76 213v241q0 59 -76 67v40h321v-40q-76 -8 -76 -67v-230q0 -212 149 -212q71 0 113.5 51.5t42.5 154.5v236q0 29 -21 46t-59 21v40h232v-40q-38 -4 -59.5 -21t-21.5 -46v-263q0 -120 -67 -190.5t-197 -70.5z" />
    <glyph glyph-name="V" unicode="V" horiz-adv-x="734" 
d="M326 0l-208 448q-6 12 -19 40.5t-17.5 37t-15 23.5t-21 21.5t-25.5 10.5v40h299v-40q-76 -10 -38 -90l124 -261q8 -23 18 -1l115 255q17 39 -1 64.5t-69 32.5v40h246v-40q-42 -8 -63.5 -33.5t-44.5 -76.5l-160 -355q-29 -64 -29 -116h-91z" />
    <glyph glyph-name="W" unicode="W" horiz-adv-x="1059" 
d="M305 0l-191 448q-4 9 -11.5 28t-10 25t-9 20t-10 19t-10 13.5t-12 12.5t-14 8t-17.5 7v40h294v-40q-75 -10 -42 -90l106 -253q10 -24 20 0l39 103q4 11 16.5 37t16 38t4 34t-9.5 45q-17 40 -32 59t-43 27v40h294v-40q-75 -10 -42 -90l107 -253q10 -24 20 0l94 246
q33 82 -70 97v40h247v-40q-43 -8 -66 -34.5t-43 -75.5l-139 -355q-30 -79 -30 -116h-86l-156 364l-97 -248q-31 -78 -31 -116h-86z" />
    <glyph glyph-name="X" unicode="X" horiz-adv-x="709" 
d="M20 0v40q96 8 265 225l6 7l-139 207q-24 36 -63 67.5t-72 34.5v40h335v-40q-38 -3 -48 -29t7 -45l75 -113q160 179 66 187v40h233v-40q-98 -8 -267 -225l-3 -4l141 -212q24 -35 62 -66t71 -34v-40h-335v40q26 2 39.5 15.5t12 29t-9.5 29.5l-76 115q-152 -167 -79 -187
q5 -1 12 -2v-40h-233z" />
    <glyph glyph-name="Y" unicode="Y" horiz-adv-x="697" 
d="M171 0v40q95 8 95 67v109q0 56 -21 85l-113 170q-29 44 -40 59.5t-32.5 32.5t-44.5 18v40h313v-40q-35 -3 -44.5 -22.5t15.5 -64.5l95 -147q7 -14 14 0l104 152q20 24 9 51.5t-56 30.5v40h217v-40q-9 -1 -17.5 -4.5t-15 -7t-15 -11t-12.5 -11.5t-12.5 -15t-10.5 -14
t-10.5 -15t-9.5 -13l-122 -183q-21 -31 -21 -91v-109q0 -59 96 -67v-40h-361z" />
    <glyph glyph-name="Z" unicode="Z" horiz-adv-x="633" 
d="M15 0l363 553q6 9 2.5 14t-13.5 5l-146 -1q-49 0 -78 -25.5t-62 -84.5h-39l41 160h525l-362 -553q-12 -19 11 -19h163q15 0 27.5 1t23.5 5.5t18 6.5t16 12.5t13 13.5t13 18.5t11.5 20t13.5 26t14 27.5h38l-47 -180h-546z" />
    <glyph glyph-name="bracketleft" unicode="[" 
d="M300 -166l-255 18v889l255 18v-53q0 -12 -21 -16l-97 -19v-749l97 -19q21 -3 21 -16v-53z" />
    <glyph glyph-name="backslash" unicode="\" horiz-adv-x="433" 
d="M398 0h-96l-267 641h96z" />
    <glyph glyph-name="bracketright" unicode="]" 
d="M25 -166v53q0 13 21 16l97 19v749l-97 19q-21 4 -21 16v53l255 -18v-889z" />
    <glyph glyph-name="asciicircum" unicode="^" horiz-adv-x="442" 
d="M79 451q-19 0 -26.5 15.5t5.5 32.5l138 187q12 13 27 11.5t22 -11.5l139 -187q12 -17 4.5 -32.5t-27.5 -15.5h-10q-7 0 -14 3t-11 5.5t-10 7.5t-7 6l-88 86l-89 -85q-20 -23 -43 -23h-10z" />
    <glyph glyph-name="underscore" unicode="_" horiz-adv-x="612" 
d="M50 -107v87h512v-87h-512z" />
    <glyph glyph-name="grave" unicode="`" horiz-adv-x="324" 
d="M251 543q-19 -19 -38 -6l-124 73q-92 56 -39 111q48 49 108 -24l91 -112q19 -24 2 -42z" />
    <glyph glyph-name="a" unicode="a" horiz-adv-x="544" 
d="M162 -6q-57 0 -94.5 27.5t-37.5 82.5q0 62 57.5 97t189.5 58q28 4 36.5 13t8.5 34v6q0 56 -13 79.5t-43 23.5q-60 0 -60 -70q0 -33 -23.5 -50t-55.5 -17q-33 0 -51 17.5t-18 43.5q0 56 72.5 88.5t170.5 32.5q90 0 130.5 -40.5t40.5 -154.5v-163q0 -26 11 -39t32 -4v-22
q-18 -43 -85 -43q-47 0 -72.5 20.5t-31.5 45.5q-2 11 -7 12.5t-13 -7.5q-58 -71 -144 -71zM235 77q40 0 63.5 29t23.5 73v11q0 17 -8.5 23t-31.5 5q-55 -3 -78 -28.5t-23 -56.5q0 -25 13.5 -40.5t40.5 -15.5z" />
    <glyph glyph-name="b" unicode="b" horiz-adv-x="609" 
d="M97 -6q-11 0 -17.5 7t-6.5 18v516q0 33 -16 44t-47 8v39l163 27q50 7 50 -40v-183q0 -9 4 -13t9.5 -2.5t11.5 6.5q43 39 127 39q85 0 144.5 -60t59.5 -167q0 -111 -65.5 -175t-154.5 -64q-38 0 -74 13t-62 26.5t-40 13.5q-18 0 -45 -26.5t-41 -26.5zM335 39q83 0 83 146
q0 84 -27.5 139t-77.5 55q-38 0 -64 -32.5t-26 -110.5v-59q0 -72 35.5 -105t76.5 -33z" />
    <glyph glyph-name="c" unicode="c" horiz-adv-x="515" 
d="M277 -6q-99 0 -173 60.5t-74 169.5q0 59 22.5 105.5t60 74t82 42t91.5 14.5q83 0 138.5 -40.5t55.5 -95.5q0 -29 -16 -49t-51 -20q-60 0 -73 68q0 3 -2 22t-4 26.5t-8 20t-17.5 17.5t-29.5 5q-88 0 -88 -133q0 -93 45.5 -150.5t118.5 -57.5q58 0 96 51l29 -21
q-15 -39 -70.5 -74t-132.5 -35z" />
    <glyph glyph-name="d" unicode="d" horiz-adv-x="611" 
d="M221 -6q-76 0 -133.5 60t-57.5 165q0 113 64.5 177t150.5 64q29 0 56 -8t40.5 -16t24.5 -10t14.5 8.5t3.5 40.5v60q0 33 -16 44t-47 8v39l163 27q50 7 50 -40v-511q0 -26 10.5 -39t31.5 -4v-22q-18 -43 -81 -43q-29 0 -55 10t-34 31q-12 29 -32 29q-6 0 -25.5 -17.5
t-53 -35t-74.5 -17.5zM299 75q34 0 59.5 27t25.5 85v47q0 90 -34 135.5t-77 45.5q-37 0 -59.5 -41t-22.5 -103q0 -77 31 -136.5t77 -59.5z" />
    <glyph glyph-name="e" unicode="e" horiz-adv-x="531" 
d="M279 -6q-102 0 -175.5 59t-73.5 170q0 78 39.5 133.5t96.5 79.5t122 24q82 0 137 -38.5t55 -102.5q0 -26 -11 -44.5t-24 -28t-42 -16.5t-45 -8.5t-53 -4.5l-78 -6q-31 -2 -25 -42q5 -44 48.5 -70.5t97.5 -26.5q73 0 118 51l30 -27q-17 -35 -77 -68.5t-140 -33.5zM227 250
l36 4q50 5 66.5 19t16.5 45q0 40 -18 68t-54 28q-40 0 -60.5 -33.5t-20.5 -80.5q0 -27 7.5 -39t26.5 -11z" />
    <glyph glyph-name="f" unicode="f" horiz-adv-x="458" 
d="M32 0v39q41 2 56 16.5t15 51.5v250q0 24 -6.5 32t-24.5 8h-52v32q44 6 63.5 15.5t19.5 32.5q0 96 60 150.5t162 54.5q61 0 102 -20.5t41 -65.5q0 -27 -16 -46t-53 -19q-35 0 -54 18t-22.5 39t-12 39t-24.5 18q-22 0 -27.5 -21t-5.5 -82v-63q0 -20 12.5 -26.5t51.5 -6.5
h69v-51l-69 2q-39 1 -51.5 -7t-12.5 -35v-248q0 -38 18 -52t71 -16v-39h-310z" />
    <glyph glyph-name="g" unicode="g" horiz-adv-x="558" 
d="M220 -211q-88 0 -146.5 28.5t-58.5 81.5q0 16 5.5 29t17 22t20 14.5t24 11.5t19.5 7q18 5 18.5 7.5t-20.5 9.5q-26 8 -42.5 28.5t-16.5 45.5q0 31 26 54t73 29q-90 46 -90 139q0 71 51 117.5t150 46.5q114 0 177 -66q1 28 16 45.5t44 17.5q23 0 39.5 -13t16.5 -41
q0 -27 -17 -41t-41 -9q-16 3 -23 -4t-6 -20q0 -5 2 -18t2 -20q0 -67 -49 -113t-138 -46q-16 0 -37 2t-29 2q-36 0 -36 -21q0 -12 14 -18.5t52 -13.5l101 -19q87 -16 132.5 -40t45.5 -72q0 -68 -88 -115.5t-208 -47.5zM267 174q50 0 50 92q0 37 -6 69t-24 57.5t-46 25.5
q-50 0 -50 -92q0 -60 18 -106t58 -46zM272 -171q106 0 106 75q0 26 -19.5 36t-78.5 21q-5 0 -8 1l-27 5q-46 8 -70 -11.5t-24 -47.5q0 -33 32 -56t89 -23z" />
    <glyph glyph-name="h" unicode="h" horiz-adv-x="616" 
d="M504 -6q-50 0 -80 28t-30 82v162q0 46 -22 77.5t-61 31.5q-40 0 -61.5 -31t-21.5 -78v-155q0 -40 13.5 -55t48.5 -17v-39h-276v39q36 2 50 17t14 55v424q0 33 -16 44t-47 8v39l163 27q50 7 50 -40v-187q0 -16 6 -24.5t14 -8t14 8.5q47 62 138 62q144 0 144 -175v-187
q0 -26 10.5 -39t31.5 -4v-22q-18 -43 -82 -43z" />
    <glyph glyph-name="i" unicode="i" 
d="M151 498q-36 0 -61.5 24.5t-25.5 59.5q0 37 25.5 62t61.5 25t60.5 -25t24.5 -62q0 -35 -25 -59.5t-60 -24.5zM24 0v39q36 2 50 17t14 55v229q0 33 -16 44t-47 8v39l163 27q50 7 50 -40v-307q0 -40 13.5 -55t48.5 -17v-39h-276z" />
    <glyph glyph-name="j" unicode="j" horiz-adv-x="318" 
d="M167 498q-37 0 -62 24.5t-25 59.5q0 37 25 62t62 25q35 0 60 -25t25 -62q0 -35 -25 -59.5t-60 -24.5zM60 -202q-55 0 -97 21.5t-42 68.5q0 30 17 48t44 18q35 0 54 -17t21.5 -38t6.5 -38t14 -17q11 0 18 16t7 36v444q0 33 -16 44t-47 8v39l163 27q50 7 50 -40v-454
q0 -80 -55.5 -123t-137.5 -43z" />
    <glyph glyph-name="k" unicode="k" horiz-adv-x="607" 
d="M14 0v39q36 2 50 17t14 55v424q0 33 -16 44t-47 8v39l163 27q50 7 50 -40v-317q0 -24 15 -33t29 4l99 83q11 9 12 23t-12.5 26t-39.5 14v38h238v-38q-36 -3 -64 -18.5t-66 -48.5l-60 -51l131 -197q34 -53 97 -59v-39h-290v39q16 2 22 12.5t4 21.5t-8 21l-42 74
q-18 27 -25 29q-5 0 -10 -4q-20 -18 -25 -27t-5 -34v-21q0 -40 13.5 -55t48.5 -17v-39h-276z" />
    <glyph glyph-name="l" unicode="l" horiz-adv-x="300" 
d="M183 -6q-49 0 -79.5 28t-30.5 82v431q0 33 -16 44t-47 8v39l163 27q50 7 50 -40v-511q0 -26 10.5 -39t31.5 -4v-22q-18 -43 -82 -43z" />
    <glyph glyph-name="m" unicode="m" horiz-adv-x="909" 
d="M797 -6q-49 0 -79.5 28t-30.5 82v162q0 48 -18.5 78.5t-53.5 30.5q-37 0 -57 -30.5t-20 -78.5v-155q0 -40 14 -55t51 -17v-39h-275v39q33 2 46.5 17.5t13.5 54.5v155q0 48 -19 78.5t-53 30.5q-37 0 -57.5 -30.5t-20.5 -78.5v-155q0 -39 13 -54.5t45 -17.5v-39h-272v39
q36 2 50 17t14 55v230q0 33 -16 44t-47 8v38l163 27q50 7 50 -32q0 -24 13 -30.5t22 6.5q58 62 134 62q80 0 114 -51q8 -13 21 -16t20 5q33 36 63.5 49t70.5 13q141 0 141 -186v-176q0 -26 10.5 -39t31.5 -4v-22q-16 -43 -82 -43z" />
    <glyph glyph-name="n" unicode="n" horiz-adv-x="626" 
d="M514 -6q-50 0 -80 28t-30 82v162q0 46 -22.5 77.5t-60.5 31.5q-39 0 -61 -31.5t-22 -77.5v-155q0 -40 13.5 -55t48.5 -17v-39h-276v39q36 2 50 17t14 55v229q0 33 -16 44t-47 8v39l163 27q50 7 50 -32q0 -16 6 -24.5t14 -8t14 8.5q56 62 140 62q142 0 142 -175v-187
q0 -26 10.5 -38.5t31.5 -4.5v-22q-18 -43 -82 -43z" />
    <glyph glyph-name="o" unicode="o" horiz-adv-x="553" 
d="M278 -6q-101 0 -174.5 61t-73.5 175q0 77 37 130.5t91 76.5t117 23q102 0 175 -61t73 -175q0 -113 -72.5 -171.5t-172.5 -58.5zM293 40q69 0 69 138q0 97 -29 167t-73 70q-69 0 -69 -139q0 -97 29.5 -166.5t72.5 -69.5z" />
    <glyph glyph-name="p" unicode="p" horiz-adv-x="619" 
d="M19 -190v38q36 3 50 17.5t14 51.5v423q0 33 -16 44t-47 8v39l163 27q50 7 50 -36v-7q0 -13 8.5 -16t16.5 6q50 55 131 55q83 0 141.5 -59.5t58.5 -165.5q0 -112 -66.5 -176.5t-156.5 -64.5q-25 0 -49 5.5t-38 11.5t-25.5 9t-16 -1.5t-4.5 -20.5v-81q0 -37 15 -51.5
t54 -17.5v-38h-283zM343 39q85 0 85 146q0 84 -27.5 139t-77.5 55q-38 0 -64 -33t-26 -112v-57q0 -76 34.5 -107t75.5 -31z" />
    <glyph glyph-name="q" unicode="q" horiz-adv-x="598" 
d="M312 -190v38q43 3 58.5 17.5t15.5 51.5v107q0 20 -12 23.5t-20 -5.5q-48 -48 -125 -48q-83 0 -141 59t-58 165q0 113 67 177.5t159 64.5q43 0 80 -15t61 -30.5t38 -15.5q18 0 41 30t36 30q24 0 24 -24v-518q0 -37 13.5 -51.5t48.5 -17.5v-38h-286zM303 75q34 0 58.5 32
t24.5 109v25q0 85 -35 129.5t-78 44.5q-39 0 -60.5 -40t-21.5 -103q0 -79 31 -138t81 -59z" />
    <glyph glyph-name="r" unicode="r" horiz-adv-x="519" 
d="M24 0v39q36 2 50 17t14 55v229q0 33 -16 44t-47 8v39l163 27q50 7 50 -32v-15q0 -18 11 -19.5t21 12.5q51 60 121 60q45 0 79 -28t34 -73q0 -41 -21.5 -62.5t-57.5 -21.5q-30 0 -50 16t-20 45q0 22 -10.5 34t-26.5 12q-34 0 -57 -39t-23 -110v-126q0 -40 14.5 -55
t54.5 -17v-39h-283z" />
    <glyph glyph-name="s" unicode="s" horiz-adv-x="462" 
d="M216 -6q-95 0 -160 45q-22 43 -20 82t32 39q25 0 32 -23q32 -99 118 -99q78 0 78 60q0 20 -19.5 32.5t-69.5 25.5q-168 48 -168 161q0 67 55.5 105t137.5 38q99 0 159 -45q22 -42 20 -81t-32 -39q-25 0 -33 24q-32 100 -115 100q-59 0 -59 -53q0 -49 71 -68
q32 -9 48.5 -13.5t48 -18.5t48 -28.5t30.5 -40t14 -56.5q0 -72 -64 -109.5t-152 -37.5z" />
    <glyph glyph-name="t" unicode="t" horiz-adv-x="398" 
d="M239 -5q-70 0 -109 38t-39 110v219q0 25 -6.5 33.5t-24.5 8.5h-45v32q59 13 94 40t63 72q10 17 28 17h18q24 0 24 -24l-1 -62q0 -17 12 -22.5t50 -5.5h65v-53l-65 4q-38 2 -50 -6.5t-12 -35.5v-212q0 -46 9.5 -69t36.5 -23q37 0 60 18l21 -29q-42 -50 -129 -50z" />
    <glyph glyph-name="u" unicode="u" horiz-adv-x="631" 
d="M234 -6q-66 0 -106 39.5t-40 146.5v159q0 32 -16 43t-47 10v39l163 27q50 7 50 -40v-214q0 -54 21.5 -87t61.5 -33t61.5 33t21.5 87v135q0 32 -16 43t-47 10v39l162 27q51 7 51 -40v-316q0 -26 10.5 -39t31.5 -4v-22q-18 -43 -84 -43q-33 0 -55.5 13t-30.5 26t-11 28
q-5 21 -18 21q-8 0 -17 -13q-55 -75 -146 -75z" />
    <glyph glyph-name="v" unicode="v" horiz-adv-x="574" 
d="M215 0l-123 327q-13 36 -31.5 55.5t-50.5 30.5v38h264v-38q-37 -11 -41.5 -30t11.5 -56l67 -175q23 -62 46 -1l32 85q24 66 26.5 102.5t-11.5 51.5t-48 23v38h208v-38q-43 -11 -61 -29t-33 -57l-125 -327h-130z" />
    <glyph glyph-name="w" unicode="w" horiz-adv-x="852" 
d="M201 0l-109 327q-19 64 -82 86v38h262v-38q-36 -10 -40.5 -29.5t8.5 -56.5l53 -176q6 -21 14.5 -28t17 0t14.5 28l27 98q0 2 3.5 18.5t5 26.5t3 29t-2.5 27q-12 47 -57 63v38h262v-38q-36 -10 -40.5 -29.5t8.5 -56.5l53 -176q6 -21 14.5 -28t17 0t14.5 28l23 85
q27 103 20 134t-56 43v38h208v-38q-45 -11 -65 -30t-31 -56l-109 -327h-128l-89 270l-91 -270h-128z" />
    <glyph glyph-name="x" unicode="x" horiz-adv-x="522" 
d="M15 0v39q68 19 136 93l57 62l-90 124q-35 46 -54 64t-50 31v38h247v-38q-34 -8 -34 -25q0 -15 40 -70l21 -32q34 38 49.5 58.5t19.5 35t-4 21t-29 12.5v38h181v-38q-38 -11 -69 -34t-67 -60l-58 -61l92 -125q35 -46 54 -64t50 -30v-39h-246v39q34 8 34 25q0 15 -40 69
l-24 32q-34 -38 -49.5 -58.5t-19 -35t4.5 -20.5t29 -12v-39h-181z" />
    <glyph glyph-name="y" unicode="y" horiz-adv-x="574" 
d="M161 -198q-54 0 -89 23.5t-35 61.5q0 26 16 45.5t50 19.5q29 0 43.5 -16.5t16.5 -36t10 -36t25 -16.5q28 0 35 26q16 44 -10 113l-131 341q-13 36 -31.5 55.5t-50.5 30.5v38h264v-38q-37 -11 -42.5 -30t10.5 -56l68 -173q9 -23 16.5 -30t15 0.5t15.5 30.5l30 81
q33 101 25.5 133t-57.5 44v38h209v-38q-44 -11 -61.5 -28.5t-33.5 -57.5l-141 -373q-33 -86 -70.5 -119t-96.5 -33z" />
    <glyph glyph-name="z" unicode="z" horiz-adv-x="474" 
d="M15 0l242 381q5 8 1.5 14.5t-12.5 6.5h-62q-50 0 -74 -23t-34 -65h-39l18 137h404l-242 -381q-5 -8 -1.5 -14.5t12.5 -6.5h74q90 0 108 88h39l-18 -137h-416z" />
    <glyph glyph-name="braceleft" unicode="{" horiz-adv-x="308" 
d="M226 -166q-48 19 -75 53.5t-34.5 69.5t-7.5 86v170q0 22 -12 32.5t-52 28.5v43q40 18 52 28.5t12 32.5v170q0 51 7.5 86t34.5 69.5t75 53.5l57 -27q-10 -5 -16.5 -12t-11 -18t-6.5 -20.5t-3 -27.5t-1 -29.5t0.5 -36t0.5 -38.5v-122q0 -57 -22.5 -87.5t-70.5 -41.5v-3
q48 -11 70.5 -41.5t22.5 -87.5v-122q0 -14 -0.5 -38.5t-0.5 -36t1 -29.5t3 -27.5t6.5 -20.5t11 -18t16.5 -12z" />
    <glyph glyph-name="bar" unicode="|" horiz-adv-x="248" 
d="M100 -215v1015h48v-1015h-48z" />
    <glyph glyph-name="braceright" unicode="}" horiz-adv-x="308" 
d="M82 -166l-57 27q10 5 16.5 12t11 18t6.5 20.5t3 27.5t1 29.5t-0.5 36t-0.5 38.5v122q0 57 22.5 87.5t70.5 41.5v3q-48 11 -70.5 41.5t-22.5 87.5v122q0 14 0.5 38.5t0.5 36t-1 29.5t-3 27.5t-6.5 20.5t-11 18t-16.5 12l57 27q48 -19 75 -53.5t34.5 -69.5t7.5 -86v-170
q0 -22 12 -32.5t52 -28.5v-43q-40 -18 -52 -28.5t-12 -32.5v-170q0 -51 -7.5 -86t-34.5 -69.5t-75 -53.5z" />
    <glyph glyph-name="asciitilde" unicode="~" horiz-adv-x="522" 
d="M348 174q-46 0 -114 35.5t-93 35.5q-20 0 -34.5 -12t-14.5 -33h-42q0 60 32.5 93t92.5 33q47 0 114 -35.5t92 -35.5q50 0 50 45h41q0 -60 -32 -93t-92 -33z" />
    <glyph glyph-name="exclamdown" unicode="&#xa1;" horiz-adv-x="262" 
d="M131 456q32 0 55.5 -23.5t23.5 -55.5t-23.5 -55.5t-55.5 -23.5t-55 23.5t-23 55.5t23 55.5t55 23.5zM96 234h71q2 -83 26 -189t24 -147q0 -39 -24 -62t-62 -23q-36 0 -61 23.5t-25 61.5q0 41 24.5 147t26.5 189z" />
    <glyph glyph-name="cent" unicode="&#xa2;" horiz-adv-x="515" 
d="M355 73q58 0 96 51l29 -21q-15 -39 -70.5 -74t-132.5 -35q-33 0 -68 8l-17 -63h-29l19 71q-67 23 -109.5 78t-42.5 136q0 59 22.5 105.5t60 74t82 42t91.5 14.5q13 0 19 -1l16 60h29l-17 -63q66 -11 106.5 -48t40.5 -84q0 -29 -16 -49t-51 -20q-60 0 -73 68q-1 6 -2.5 20
t-2.5 22.5t-5.5 19t-11.5 17.5l-76 -279q45 -50 113 -50zM191 281q0 -74 30 -128l71 260q-4 1 -13 1q-88 0 -88 -133z" />
    <glyph glyph-name="sterling" unicode="&#xa3;" horiz-adv-x="574" 
d="M534 187l-18 -124q-7 -47 5 -63h-477v86q43 24 63 47.5t20 53.5q0 18 -9 50h-78v32h66q-4 9 -19.5 44.5t-22 52t-13.5 45t-7 52.5q0 83 67.5 128.5t173.5 45.5q110 0 179.5 -47.5t69.5 -126.5q0 -49 -27 -78t-66 -29q-32 0 -55 19.5t-23 52.5q0 13 6.5 38t6.5 42
q0 40 -25 64t-63 24q-41 0 -60.5 -31t-19.5 -68q0 -40 34 -117.5t37 -110.5h151v-32h-152q-12 -80 -136 -117h153q96 0 144.5 14.5t64.5 52.5h30z" />
    <glyph glyph-name="currency" unicode="&#xa4;" horiz-adv-x="601" 
d="M509 228q0 -64 -36 -117l78 -77l-59 -59l-79 78q-53 -34 -115 -34q-61 0 -111 33l-78 -77l-59 59l77 76q-36 53 -36 118q0 62 35 115l-76 75l59 60l76 -76q53 34 113 34q63 0 117 -35l77 77l59 -60l-77 -76q35 -52 35 -114zM178 228q0 -51 35 -88.5t86 -37.5t87 37.5
t36 88.5t-36 88t-87 37q-50 0 -85.5 -37t-35.5 -88z" />
    <glyph glyph-name="yen" unicode="&#xa5;" horiz-adv-x="697" 
d="M465 621h217v-40q-9 -1 -17.5 -4.5t-15 -7t-15 -11t-12.5 -11.5t-12.5 -15t-10.5 -14t-10.5 -15t-9.5 -13l-122 -183q-12 -18 -17 -38h112v-32h-116v-21v-40h116v-33h-116v-36q0 -59 96 -67v-40h-361v40q95 8 95 67v36h-120v33h120v40q0 15 -1 21h-119v32h115
q-6 17 -16 32l-113 170q-29 44 -40 59.5t-32.5 32.5t-44.5 18v40h313v-40q-35 -3 -44.5 -22.5t15.5 -64.5l95 -147q7 -14 14 0l104 152q20 24 9 51.5t-56 30.5v40z" />
    <glyph glyph-name="brokenbar" unicode="&#xa6;" horiz-adv-x="248" 
d="M100 451v349h48v-349h-48zM100 -215v349h48v-349h-48z" />
    <glyph glyph-name="section" unicode="&#xa7;" horiz-adv-x="546" 
d="M444 103q69 -52 69 -135q0 -47 -22 -81.5t-58.5 -52.5t-75.5 -26t-82 -8q-58 0 -120 15t-92 35q-24 50 -21.5 101.5t39.5 51.5q9 0 13.5 -5t10.5 -21q24 -62 73 -92.5t107 -31.5q86 -1 86 68q0 38 -37.5 60t-111.5 43q-78 22 -130 70.5t-52 122.5q0 78 65 114
q-67 55 -67 136t63 125.5t156 44.5q57 0 117 -14t90 -33q22 -50 19.5 -101.5t-39.5 -51.5q-10 0 -13.5 4t-11.5 20q-21 60 -67.5 91t-99.5 31q-42 0 -63 -19.5t-21 -43.5q0 -40 30.5 -61t96.5 -41q35 -10 59.5 -19t56.5 -26t52 -36.5t34 -50.5t14 -68q0 -82 -67 -115z
M169 270q0 -40 31 -61.5t97 -40.5q39 -11 68 -22q4 11 4 25q0 20 -11 36t-35 28t-45 20t-58 19q-13 3 -47 16q-4 -9 -4 -20z" />
    <glyph glyph-name="dieresis" unicode="&#xa8;" horiz-adv-x="510" 
d="M137 498q-36 0 -61.5 24.5t-25.5 59.5q0 37 25.5 62t61.5 25q35 0 60 -25t25 -62q0 -35 -25 -59.5t-60 -24.5zM375 498q-36 0 -61.5 24.5t-25.5 59.5q0 37 25.5 62t61.5 25t60.5 -25t24.5 -62q0 -35 -25 -59.5t-60 -24.5z" />
    <glyph glyph-name="copyright" unicode="&#xa9;" horiz-adv-x="720" 
d="M360 -10q-141 0 -235.5 92.5t-94.5 231.5q0 138 94.5 230.5t235.5 92.5t235.5 -92.5t94.5 -230.5q0 -139 -94.5 -231.5t-235.5 -92.5zM360 30q122 0 205 81.5t83 202.5t-83 202t-205 81t-205 -81t-83 -202t83 -202.5t205 -81.5zM373 123q-80 0 -139 50.5t-59 136.5
q0 88 61 136.5t141 48.5q64 0 105 -30.5t41 -69.5q0 -24 -12 -40t-36 -16q-27 0 -40.5 15t-13.5 37q0 12 -2.5 23.5t-16 25.5t-37.5 14q-75 0 -75 -113q0 -72 35 -115t95 -43q44 0 78 43l26 -22q-15 -30 -53.5 -55.5t-97.5 -25.5z" />
    <glyph glyph-name="ordfeminine" unicode="&#xaa;" horiz-adv-x="358" 
d="M131 320q-45 -1 -77.5 18.5t-32.5 64.5q0 39 39.5 66t143.5 43v5q0 78 -34 78q-9 0 -19.5 -8.5t-10.5 -23.5q0 -48 -60 -48q-21 0 -32 12.5t-11 28.5q0 34 50.5 55.5t107.5 21.5q56 0 81.5 -27t25.5 -88v-99q0 -29 6 -36.5t31 1.5v-44q-25 -24 -65 -20.5t-57 45.5
q-28 -43 -86 -45zM154 376q50 0 50 66v29q-35 -7 -54.5 -19t-23.5 -22.5t-4 -25.5q0 -28 32 -28zM54 219v51h249v-51h-249z" />
    <glyph glyph-name="guillemotleft" unicode="&#xab;" horiz-adv-x="507" 
d="M50 257l180 161l28 -28l-88 -133l88 -132l-28 -29zM249 257l179 161l29 -28l-89 -133l89 -132l-29 -29z" />
    <glyph glyph-name="logicalnot" unicode="&#xac;" horiz-adv-x="548" 
d="M450 143v199h-400v48h448v-247h-48z" />
    <glyph glyph-name="uni00AD" unicode="&#xad;" horiz-adv-x="370" 
d="M50 205v91h270v-91h-270z" />
    <glyph glyph-name="registered" unicode="&#xae;" horiz-adv-x="720" 
d="M360 -10q-141 0 -235.5 92.5t-94.5 231.5q0 138 94.5 230.5t235.5 92.5t235.5 -92.5t94.5 -230.5q0 -139 -94.5 -231.5t-235.5 -92.5zM360 30q122 0 205 81.5t83 202.5t-83 202t-205 81t-205 -81t-83 -202t83 -202.5t205 -81.5zM172 125v27q39 6 39 37v249q0 31 -39 37
v27h202q68 0 108 -27t40 -76q0 -70 -93 -94q-3 -1 -3 -3.5t3 -3.5q54 -13 72 -76q10 -35 20.5 -52.5t29.5 -17.5v-27h-32q-57 0 -81 22.5t-44 80.5q-12 36 -23.5 48t-39.5 12q-27 0 -27 -32v-67q0 -31 40 -37v-27h-172zM338 324h12q41 0 59.5 22t18.5 52q0 29 -17 48.5
t-53 19.5h-27q-27 0 -27 -28v-82q0 -17 7.5 -24.5t26.5 -7.5z" />
    <glyph glyph-name="macron" unicode="&#xaf;" horiz-adv-x="439" 
d="M81 580q-23 0 -23 19v50q0 19 23 19h277q23 0 23 -19v-50q0 -19 -23 -19h-277z" />
    <glyph glyph-name="degree" unicode="&#xb0;" horiz-adv-x="332" 
d="M166 375q-55 0 -95.5 39t-40.5 92t40.5 92t95.5 39t95.5 -39t40.5 -92t-40.5 -92t-95.5 -39zM166 438q31 0 48 20t17 48q0 27 -17 47.5t-48 20.5t-48 -20.5t-17 -47.5q0 -28 17 -48t48 -20z" />
    <glyph glyph-name="plusminus" unicode="&#xb1;" horiz-adv-x="470" 
d="M260 377h160v-49h-160v-161h-49v161h-161v49h161v161h49v-161zM50 0v48h370v-48h-370z" />
    <glyph glyph-name="uni00B2" unicode="&#xb2;" horiz-adv-x="309" 
d="M40 379q6 76 78 114q39 21 52.5 36.5t13.5 34.5q0 18 -9 28.5t-22 10.5q-28 0 -28 -30q0 -5 2 -19t0 -16q-14 -26 -44.5 -18t-30.5 42q0 30 26 50.5t79 20.5q48 0 73 -21.5t25 -54.5q0 -62 -85 -94q-79 -32 -87 -37h102q16 0 26 3.5t14 7.5t11 14h33l-10 -58
q-3 -14 -21 -14h-198z" />
    <glyph glyph-name="uni00B3" unicode="&#xb3;" horiz-adv-x="294" 
d="M141 374q-51 0 -78.5 23.5t-27.5 51.5q0 32 33 32q10 0 17 -5t9 -10t5 -16.5t4 -13.5q11 -30 36 -30q22 0 34 16t12 36q0 25 -20.5 31.5t-46.5 -6.5l-14 27l16 6q42 15 42 54q0 15 -8.5 24t-20.5 9q-17 0 -24 -18.5t-1 -40.5q-29 -22 -47.5 -11.5t-18.5 35.5
q0 28 25.5 46.5t73.5 18.5q45 0 69.5 -18.5t24.5 -46.5q0 -17 -9 -28t-36 -25q30 -1 47 -19.5t17 -43.5q0 -36 -32.5 -57t-80.5 -21z" />
    <glyph glyph-name="acute" unicode="&#xb4;" horiz-adv-x="327" 
d="M57 543q-18 18 2 42l90 112q61 74 109 24q52 -55 -40 -111l-123 -73q-19 -13 -38 6z" />
    <glyph glyph-name="paragraph" unicode="&#xb6;" horiz-adv-x="893" 
d="M274 -93v42q75 8 75 67v126q0 28 -12.5 40.5t-42.5 12.5h-32q-113 0 -172.5 61t-59.5 155q0 93 59.5 151.5t172.5 58.5h601v-42q-76 -8 -76 -67v-496q0 -59 76 -67v-42h-589zM568 -51q20 0 34.5 19t14.5 48v496q0 29 -14.5 48t-34.5 19t-34.5 -19t-14.5 -48v-496
q0 -29 14.5 -48t34.5 -19z" />
    <glyph glyph-name="periodcentered" unicode="&#xb7;" horiz-adv-x="257" 
d="M128 221q-32 0 -55 23t-23 56q0 32 23 55t55 23t55.5 -23t23.5 -55q0 -33 -23.5 -56t-55.5 -23z" />
    <glyph glyph-name="cedilla" unicode="&#xb8;" horiz-adv-x="313" 
d="M144 -247q-55 0 -92 25.5t-37 58.5q0 36 33.5 49.5t61.5 -17.5q0 -20 11.5 -44t34.5 -24q21 0 31.5 18.5t10.5 44.5q0 47 -32 47q-5 0 -19.5 -3.5t-24.5 -3.5q-20 0 -29 13t-2 30l26 53h97l-20 -43q43 -2 73.5 -28.5t30.5 -66.5q0 -52 -46 -80.5t-108 -28.5z" />
    <glyph glyph-name="uni00B9" unicode="&#xb9;" horiz-adv-x="195" 
d="M32 379v30q24 1 28.5 8t4.5 28v114h-35v31l74 38q12 5 21.5 -0.5t9.5 -14.5v-168q0 -14 1.5 -20.5t8 -10.5t20.5 -5v-30h-133z" />
    <glyph glyph-name="ordmasculine" unicode="&#xba;" horiz-adv-x="356" 
d="M178 321q-65 0 -111 44t-46 112q0 69 45.5 112t111.5 44t111.5 -43t45.5 -113q0 -68 -45.5 -112t-111.5 -44zM184 364q23 0 37.5 24.5t14.5 69.5q0 54 -19 93.5t-46 39.5q-21 0 -36 -25.5t-15 -69.5q0 -54 18.5 -93t45.5 -39zM54 219v51h249v-51h-249z" />
    <glyph glyph-name="guillemotright" unicode="&#xbb;" horiz-adv-x="507" 
d="M258 257l-179 -161l-29 29l89 132l-89 133l29 28zM457 257l-180 -161l-28 29l88 132l-88 133l28 28z" />
    <glyph glyph-name="onequarter" unicode="&#xbc;" horiz-adv-x="684" 
d="M40 -5l470 641h68l-469 -641h-69zM32 379v30q24 1 28.5 8t4.5 28v114h-35v31l74 38q12 5 21.5 -0.5t9.5 -14.5v-168q0 -14 1.5 -20.5t8 -10.5t20.5 -5v-30h-133zM494 0v30q26 2 33 7.5t7 23.5v9h-95v39l123 144l45 -9v-144h37v-30h-37v-9q0 -18 6.5 -23.5t30.5 -7.5v-30
h-150zM478 100h56v64z" />
    <glyph glyph-name="onehalf" unicode="&#xbd;" horiz-adv-x="723" 
d="M40 -5l470 641h68l-469 -641h-69zM32 379v30q24 1 28.5 8t4.5 28v114h-35v31l74 38q12 5 21.5 -0.5t9.5 -14.5v-168q0 -14 1.5 -20.5t8 -10.5t20.5 -5v-30h-133zM454 0q6 76 78 114q39 21 52.5 36.5t13.5 34.5q0 18 -9 28.5t-22 10.5q-28 0 -28 -30q0 -5 2 -19t0 -16
q-14 -26 -44.5 -18t-30.5 42q0 30 26 50.5t79 20.5q48 0 73 -21.5t25 -54.5q0 -62 -85 -94q-79 -32 -87 -37h102q16 0 26 3.5t14 7.5t11 14h33l-10 -58q-3 -14 -21 -14h-198z" />
    <glyph glyph-name="threequarters" unicode="&#xbe;" horiz-adv-x="705" 
d="M120 -5l470 641h69l-469 -641h-70zM141 374q-51 0 -78.5 23.5t-27.5 51.5q0 32 33 32q10 0 17 -5t9 -10t5 -16.5t4 -13.5q11 -30 36 -30q22 0 34 16t12 36q0 25 -20.5 31.5t-46.5 -6.5l-14 27l16 6q42 15 42 54q0 15 -8.5 24t-20.5 9q-17 0 -24 -18.5t-1 -40.5
q-29 -22 -47.5 -11.5t-18.5 35.5q0 28 25.5 46.5t73.5 18.5q45 0 69.5 -18.5t24.5 -46.5q0 -17 -9 -28t-36 -25q30 -1 47 -19.5t17 -43.5q0 -36 -32.5 -57t-80.5 -21zM516 0v30q26 2 33 7.5t7 23.5v9h-96v39l123 144l45 -9v-144h37v-30h-37v-9q0 -18 6.5 -23.5t30.5 -7.5
v-30h-149zM499 100h57v64z" />
    <glyph glyph-name="questiondown" unicode="&#xbf;" horiz-adv-x="510" 
d="M261 559q32 0 55 -23.5t23 -55.5t-23 -55.5t-55 -23.5t-55 23.5t-23 55.5t23 55.5t55 23.5zM293 351q8 -48 -2.5 -86.5t-31 -63t-41.5 -45t-37 -44t-16 -49.5q0 -35 26 -62t69 -27q34 0 60 16t26 50q0 27 -18 57t-18 44q0 29 22 47t51 18q37 0 64.5 -29t27.5 -84
q0 -77 -60.5 -127t-164.5 -50q-95 0 -155 43.5t-60 117.5q0 40 19 72t47 53.5t56.5 41.5t50 47t24.5 60h61z" />
    <glyph glyph-name="Agrave" unicode="&#xc0;" horiz-adv-x="734" 
d="M410 713q-19 -19 -38 -6l-124 73q-92 56 -39 111q48 49 108 -24l91 -112q19 -24 2 -42zM20 0v40q43 10 64.5 35t43.5 75l160 355q29 64 29 116l88 8l212 -456q6 -13 16 -35t14 -31t12.5 -23.5t15 -21t16.5 -13t23 -10.5v-39h-298v40q75 13 38 90l-7 12q-7 21 -52 21h-144
q-43 0 -57 -30l3 4q-34 -79 69 -97v-40h-246zM256 215h132q8 0 12 6t0 19l-71 151q-5 13 -9 13t-9 -12l-71 -159q-2 -8 3.5 -13t12.5 -5z" />
    <glyph glyph-name="Aacute" unicode="&#xc1;" horiz-adv-x="734" 
d="M315 713q-18 18 2 42l90 112q61 74 109 24q52 -55 -40 -111l-123 -73q-19 -13 -38 6zM20 0v40q43 10 64.5 35t43.5 75l160 355q29 64 29 116l88 8l212 -456q6 -13 16 -35t14 -31t12.5 -23.5t15 -21t16.5 -13t23 -10.5v-39h-298v40q75 13 38 90l-7 12q-7 21 -52 21h-144
q-43 0 -57 -30l3 4q-34 -79 69 -97v-40h-246zM256 215h132q8 0 12 6t0 19l-71 151q-5 13 -9 13t-9 -12l-71 -159q-2 -8 3.5 -13t12.5 -5z" />
    <glyph glyph-name="Acircumflex" unicode="&#xc2;" horiz-adv-x="734" 
d="M355 921l161 -180l-29 -28l-132 89l-132 -89l-29 28zM20 0v40q43 10 64.5 35t43.5 75l160 355q29 64 29 116l88 8l212 -456q6 -13 16 -35t14 -31t12.5 -23.5t15 -21t16.5 -13t23 -10.5v-39h-298v40q75 13 38 90l-7 12q-7 21 -52 21h-144q-43 0 -57 -30l3 4
q-34 -79 69 -97v-40h-246zM256 215h132q8 0 12 6t0 19l-71 151q-5 13 -9 13t-9 -12l-71 -159q-2 -8 3.5 -13t12.5 -5z" />
    <glyph glyph-name="Atilde" unicode="&#xc3;" horiz-adv-x="734" 
d="M442 696q-46 0 -113 35.5t-92 35.5q-21 0 -35.5 -12t-14.5 -34h-40q0 61 32 94.5t90 33.5q47 0 114 -36t91 -36q51 0 51 46h39q0 -61 -31 -94t-91 -33zM20 0v40q43 10 64.5 35t43.5 75l160 355q29 64 29 116l88 8l212 -456q6 -13 16 -35t14 -31t12.5 -23.5t15 -21
t16.5 -13t23 -10.5v-39h-298v40q75 13 38 90l-7 12q-7 21 -52 21h-144q-43 0 -57 -30l3 4q-34 -79 69 -97v-40h-246zM256 215h132q8 0 12 6t0 19l-71 151q-5 13 -9 13t-9 -12l-71 -159q-2 -8 3.5 -13t12.5 -5z" />
    <glyph glyph-name="Adieresis" unicode="&#xc4;" horiz-adv-x="734" 
d="M237 668q-36 0 -61.5 24.5t-25.5 59.5q0 37 25.5 62t61.5 25q35 0 60 -25t25 -62q0 -35 -25 -59.5t-60 -24.5zM475 668q-36 0 -61.5 24.5t-25.5 59.5q0 37 25.5 62t61.5 25t60.5 -25t24.5 -62q0 -35 -25 -59.5t-60 -24.5zM20 0v40q43 10 64.5 35t43.5 75l160 355
q29 64 29 116l88 8l212 -456q6 -13 16 -35t14 -31t12.5 -23.5t15 -21t16.5 -13t23 -10.5v-39h-298v40q75 13 38 90l-7 12q-7 21 -52 21h-144q-43 0 -57 -30l3 4q-34 -79 69 -97v-40h-246zM256 215h132q8 0 12 6t0 19l-71 151q-5 13 -9 13t-9 -12l-71 -159q-2 -8 3.5 -13
t12.5 -5z" />
    <glyph glyph-name="Aring" unicode="&#xc5;" horiz-adv-x="734" 
d="M354 702q-46 0 -79 31t-33 75t33.5 76t78.5 32q46 0 79.5 -32t33.5 -76q0 -45 -33.5 -75.5t-79.5 -30.5zM354 768q19 0 30 11.5t11 28.5t-11 29.5t-30 12.5t-29.5 -12.5t-10.5 -29.5t10.5 -28.5t29.5 -11.5zM20 0v40q43 10 64.5 35t43.5 75l160 355q29 64 29 116l88 8
l212 -456q6 -13 16 -35t14 -31t12.5 -23.5t15 -21t16.5 -13t23 -10.5v-39h-298v40q75 13 38 90l-7 12q-7 21 -52 21h-144q-43 0 -57 -30l3 4q-34 -79 69 -97v-40h-246zM256 215h132q8 0 12 6t0 19l-71 151q-5 13 -9 13t-9 -12l-71 -159q-2 -8 3.5 -13t12.5 -5z" />
    <glyph glyph-name="AE" unicode="&#xc6;" horiz-adv-x="1002" 
d="M947 140h26q-21 -43 -30 -126q-2 -14 -16 -14h-525v40q76 9 76 67v69h-194q-21 0 -34 -8.5t-30 -34.5l-22 -35q-11 -17 -12.5 -27t8 -16t21.5 -8.5t38 -6.5v-40h-233v40q2 1 14.5 3t14.5 2.5t11.5 3t11.5 4t9.5 5t10.5 7t8.5 9t10.5 12t10 14.5l262 412q12 20 18 35.5
t5.5 23t-4.5 8.5h14q-10 2 -14 2v40h509q12 0 13 -10q7 -68 22 -133h-26q-28 49 -55 71t-69 22h-85q-64 0 -64 -65v-105q0 -62 64 -62h40q59 0 78.5 15.5t25.5 58.5h22v-198h-22q-6 42 -26 57.5t-78 15.5h-40q-64 0 -64 -62v-113q0 -63 53 -65l108 1q43 1 68.5 14.5
t46.5 41.5zM316 232h162v282q0 12 -3 22l-175 -276q-8 -11 -4 -19.5t20 -8.5z" />
    <glyph glyph-name="Ccedilla" unicode="&#xc7;" horiz-adv-x="674" 
d="M456 82q90 0 153 70l30 -25q-25 -47 -87 -89t-157 -47l-16 -34q43 -2 73.5 -28.5t30.5 -66.5q0 -52 -46 -80.5t-108 -28.5q-55 0 -92 25.5t-37 58.5q0 36 33.5 49.5t61.5 -17.5q0 -20 11.5 -44t34.5 -24q21 0 31.5 18.5t10.5 44.5q0 47 -32 47q-5 0 -19.5 -3.5
t-24.5 -3.5q-20 0 -29 13t-2 30l24 50q-117 21 -193.5 105t-76.5 213q0 148 100 235t252 87q119 0 190 -52.5t71 -122.5q0 -38 -23 -65t-69 -27q-44 0 -67 25.5t-25 63.5q-3 60 -29.5 98.5t-80.5 38.5q-65 0 -99.5 -58.5t-32.5 -158.5q1 -143 72.5 -220t166.5 -77z" />
    <glyph glyph-name="Egrave" unicode="&#xc8;" horiz-adv-x="630" 
d="M380 713q-19 -19 -38 -6l-124 73q-92 56 -39 111q48 49 108 -24l91 -112q19 -24 2 -42zM30 0v40q76 9 76 67v407q0 59 -76 67v40h508q13 0 14 -10q7 -68 21 -133h-25q-28 49 -55 71t-69 22h-85q-64 0 -64 -65v-105q0 -62 64 -62h40q58 0 78 15.5t26 58.5h22v-198h-22
q-6 42 -26 57.5t-78 15.5h-40q-64 0 -64 -62v-113q0 -63 53 -65l108 1q43 1 68.5 14.5t46.5 41.5l24 35h25q-21 -47 -30 -126q-2 -14 -16 -14h-524z" />
    <glyph glyph-name="Eacute" unicode="&#xc9;" horiz-adv-x="630" 
d="M285 713q-18 18 2 42l90 112q61 74 109 24q52 -55 -40 -111l-123 -73q-19 -13 -38 6zM30 0v40q76 9 76 67v407q0 59 -76 67v40h508q13 0 14 -10q7 -68 21 -133h-25q-28 49 -55 71t-69 22h-85q-64 0 -64 -65v-105q0 -62 64 -62h40q58 0 78 15.5t26 58.5h22v-198h-22
q-6 42 -26 57.5t-78 15.5h-40q-64 0 -64 -62v-113q0 -63 53 -65l108 1q43 1 68.5 14.5t46.5 41.5l24 35h25q-21 -47 -30 -126q-2 -14 -16 -14h-524z" />
    <glyph glyph-name="Ecircumflex" unicode="&#xca;" horiz-adv-x="630" 
d="M325 921l161 -180l-29 -28l-132 89l-132 -89l-29 28zM30 0v40q76 9 76 67v407q0 59 -76 67v40h508q13 0 14 -10q7 -68 21 -133h-25q-28 49 -55 71t-69 22h-85q-64 0 -64 -65v-105q0 -62 64 -62h40q58 0 78 15.5t26 58.5h22v-198h-22q-6 42 -26 57.5t-78 15.5h-40
q-64 0 -64 -62v-113q0 -63 53 -65l108 1q43 1 68.5 14.5t46.5 41.5l24 35h25q-21 -47 -30 -126q-2 -14 -16 -14h-524z" />
    <glyph glyph-name="Edieresis" unicode="&#xcb;" horiz-adv-x="630" 
d="M207 668q-36 0 -61.5 24.5t-25.5 59.5q0 37 25.5 62t61.5 25q35 0 60 -25t25 -62q0 -35 -25 -59.5t-60 -24.5zM445 668q-36 0 -61.5 24.5t-25.5 59.5q0 37 25.5 62t61.5 25t60.5 -25t24.5 -62q0 -35 -25 -59.5t-60 -24.5zM30 0v40q76 9 76 67v407q0 59 -76 67v40h508
q13 0 14 -10q7 -68 21 -133h-25q-28 49 -55 71t-69 22h-85q-64 0 -64 -65v-105q0 -62 64 -62h40q58 0 78 15.5t26 58.5h22v-198h-22q-6 42 -26 57.5t-78 15.5h-40q-64 0 -64 -62v-113q0 -63 53 -65l108 1q43 1 68.5 14.5t46.5 41.5l24 35h25q-21 -47 -30 -126
q-2 -14 -16 -14h-524z" />
    <glyph glyph-name="Igrave" unicode="&#xcc;" horiz-adv-x="381" 
d="M246 713q-19 -19 -38 -6l-124 73q-92 56 -39 111q48 49 108 -24l91 -112q19 -24 2 -42zM30 0v40q76 9 76 67v407q0 59 -76 67v40h321v-40q-76 -8 -76 -67v-407q0 -58 76 -67v-40h-321z" />
    <glyph glyph-name="Iacute" unicode="&#xcd;" horiz-adv-x="381" 
d="M152 713q-18 18 2 42l90 112q61 74 109 24q52 -55 -40 -111l-123 -73q-19 -13 -38 6zM30 0v40q76 9 76 67v407q0 59 -76 67v40h321v-40q-76 -8 -76 -67v-407q0 -58 76 -67v-40h-321z" />
    <glyph glyph-name="Icircumflex" unicode="&#xce;" horiz-adv-x="381" 
d="M192 921l161 -180l-29 -28l-132 89l-132 -89l-29 28zM30 0v40q76 9 76 67v407q0 59 -76 67v40h321v-40q-76 -8 -76 -67v-407q0 -58 76 -67v-40h-321z" />
    <glyph glyph-name="Idieresis" unicode="&#xcf;" horiz-adv-x="381" 
d="M73 668q-36 0 -61.5 24.5t-25.5 59.5q0 37 25.5 62t61.5 25q35 0 60 -25t25 -62q0 -35 -25 -59.5t-60 -24.5zM311 668q-36 0 -61.5 24.5t-25.5 59.5q0 37 25.5 62t61.5 25t60.5 -25t24.5 -62q0 -35 -25 -59.5t-60 -24.5zM30 0v40q76 9 76 67v407q0 59 -76 67v40h321v-40
q-76 -8 -76 -67v-407q0 -58 76 -67v-40h-321z" />
    <glyph glyph-name="Eth" unicode="&#xd0;" horiz-adv-x="737" 
d="M338 621q182 0 270.5 -75.5t88.5 -229.5q0 -82 -27 -143.5t-64.5 -93t-88 -50.5t-84.5 -23t-68 -4q-19 0 -89 3.5t-104 3.5q-63 0 -142 -9v40q76 9 76 67v181h-75v45h75v180q0 60 -76 68v40h308zM337 52q84 0 128.5 73t44.5 191q0 126 -47.5 191t-114.5 65h-9
q-64 0 -64 -61v-178h94v-45h-94v-179q0 -57 62 -57z" />
    <glyph glyph-name="Ntilde" unicode="&#xd1;" horiz-adv-x="743" 
d="M500 696q-46 0 -113 35.5t-91 35.5q-21 0 -36 -12t-15 -34h-40q0 61 32 94.5t91 33.5q46 0 113 -36t91 -36q51 0 51 46h39q0 -61 -31 -94t-91 -33zM30 0v40q81 10 81 67v407q0 29 -21.5 46t-59.5 21v40h191l339 -376v269q0 29 -22 46t-60 21v40h228v-40q-38 -4 -60 -21
t-22 -46v-514h-62l-386 429v-322q0 -57 83 -67v-40h-229z" />
    <glyph glyph-name="Ograve" unicode="&#xd2;" horiz-adv-x="729" 
d="M463 713q-19 -19 -38 -6l-124 73q-92 56 -39 111q48 49 108 -24l90 -112q21 -23 3 -42zM362 -10q-86 0 -160 34.5t-123 109t-49 174.5q0 102 49 178.5t124.5 113.5t164.5 37q86 0 159.5 -34.5t122.5 -108t49 -172.5q0 -103 -49 -180.5t-124 -114.5t-164 -37zM391 42
q52 0 89 54t37 164q0 137 -52 231t-127 94q-52 0 -88.5 -53.5t-36.5 -162.5q0 -138 52 -232.5t126 -94.5z" />
    <glyph glyph-name="Oacute" unicode="&#xd3;" horiz-adv-x="729" 
d="M316 713q-18 18 2 42l90 112q61 74 109 24q52 -55 -40 -111l-123 -73q-19 -13 -38 6zM362 -10q-86 0 -160 34.5t-123 109t-49 174.5q0 102 49 178.5t124.5 113.5t164.5 37q86 0 159.5 -34.5t122.5 -108t49 -172.5q0 -103 -49 -180.5t-124 -114.5t-164 -37zM391 42
q52 0 89 54t37 164q0 137 -52 231t-127 94q-52 0 -88.5 -53.5t-36.5 -162.5q0 -138 52 -232.5t126 -94.5z" />
    <glyph glyph-name="Ocircumflex" unicode="&#xd4;" horiz-adv-x="729" 
d="M356 921l161 -180l-29 -28l-132 89l-132 -89l-29 28zM362 -10q-86 0 -160 34.5t-123 109t-49 174.5q0 102 49 178.5t124.5 113.5t164.5 37q86 0 159.5 -34.5t122.5 -108t49 -172.5q0 -103 -49 -180.5t-124 -114.5t-164 -37zM391 42q52 0 89 54t37 164q0 137 -52 231
t-127 94q-52 0 -88.5 -53.5t-36.5 -162.5q0 -138 52 -232.5t126 -94.5z" />
    <glyph glyph-name="Otilde" unicode="&#xd5;" horiz-adv-x="729" 
d="M483 696q-46 0 -113 35.5t-91 35.5q-21 0 -36 -12t-15 -34h-40q0 61 32 94.5t91 33.5q46 0 113 -36t91 -36q51 0 51 46h39q0 -61 -31 -94t-91 -33zM362 -10q-86 0 -160 34.5t-123 109t-49 174.5q0 102 49 178.5t124.5 113.5t164.5 37q86 0 159.5 -34.5t122.5 -108
t49 -172.5q0 -103 -49 -180.5t-124 -114.5t-164 -37zM391 42q52 0 89 54t37 164q0 137 -52 231t-127 94q-52 0 -88.5 -53.5t-36.5 -162.5q0 -138 52 -232.5t126 -94.5z" />
    <glyph glyph-name="Odieresis" unicode="&#xd6;" horiz-adv-x="729" 
d="M237 668q-36 0 -61.5 24.5t-25.5 59.5q0 37 25.5 62t61.5 25q35 0 60 -25t25 -62q0 -35 -25 -59.5t-60 -24.5zM475 668q-36 0 -61.5 24.5t-25.5 59.5q0 37 25.5 62t61.5 25t60.5 -25t24.5 -62q0 -35 -25 -59.5t-60 -24.5zM362 -10q-86 0 -160 34.5t-123 109t-49 174.5
q0 102 49 178.5t124.5 113.5t164.5 37q86 0 159.5 -34.5t122.5 -108t49 -172.5q0 -103 -49 -180.5t-124 -114.5t-164 -37zM391 42q52 0 89 54t37 164q0 137 -52 231t-127 94q-52 0 -88.5 -53.5t-36.5 -162.5q0 -138 52 -232.5t126 -94.5z" />
    <glyph glyph-name="multiply" unicode="&#xd7;" horiz-adv-x="397" 
d="M348 137l-36 -33l-113 113l-114 -114l-33 34l113 114l-115 115l36 33l113 -113l115 115l33 -36l-113 -113z" />
    <glyph glyph-name="Oslash" unicode="&#xd8;" horiz-adv-x="729" 
d="M592 561q107 -89 107 -239q0 -103 -49 -180.5t-124 -114.5t-164 -37q-110 0 -196 56l-38 -47l-23 20l37 44q-112 90 -112 245q0 102 49 178.5t124.5 113.5t164.5 37q110 0 199 -58l34 41l23 -20zM213 369q0 -101 30 -183l233 283q-54 116 -138 116q-52 0 -88.5 -53.5
t-36.5 -162.5zM391 42q52 0 89 54t37 164q0 98 -28 177l-233 -283q54 -112 135 -112z" />
    <glyph glyph-name="Ugrave" unicode="&#xd9;" horiz-adv-x="752" 
d="M500 713q-19 -19 -38 -6l-124 73q-92 56 -39 111q48 49 108 -24l90 -112q21 -23 3 -42zM382 -10q-129 0 -205 70t-76 213v241q0 59 -76 67v40h321v-40q-76 -8 -76 -67v-230q0 -212 149 -212q71 0 113.5 51.5t42.5 154.5v236q0 29 -21 46t-59 21v40h232v-40
q-38 -4 -59.5 -21t-21.5 -46v-263q0 -120 -67 -190.5t-197 -70.5z" />
    <glyph glyph-name="Uacute" unicode="&#xda;" horiz-adv-x="752" 
d="M353 713q-18 18 2 42l90 112q61 74 109 24q52 -55 -40 -111l-123 -73q-19 -13 -38 6zM382 -10q-129 0 -205 70t-76 213v241q0 59 -76 67v40h321v-40q-76 -8 -76 -67v-230q0 -212 149 -212q71 0 113.5 51.5t42.5 154.5v236q0 29 -21 46t-59 21v40h232v-40
q-38 -4 -59.5 -21t-21.5 -46v-263q0 -120 -67 -190.5t-197 -70.5z" />
    <glyph glyph-name="Ucircumflex" unicode="&#xdb;" horiz-adv-x="752" 
d="M393 921l161 -180l-29 -28l-132 89l-132 -89l-29 28zM382 -10q-129 0 -205 70t-76 213v241q0 59 -76 67v40h321v-40q-76 -8 -76 -67v-230q0 -212 149 -212q71 0 113.5 51.5t42.5 154.5v236q0 29 -21 46t-59 21v40h232v-40q-38 -4 -59.5 -21t-21.5 -46v-263
q0 -120 -67 -190.5t-197 -70.5z" />
    <glyph glyph-name="Udieresis" unicode="&#xdc;" horiz-adv-x="752" 
d="M274 668q-36 0 -61.5 24.5t-25.5 59.5q0 37 25.5 62t61.5 25q35 0 60 -25t25 -62q0 -35 -25 -59.5t-60 -24.5zM512 668q-36 0 -61.5 24.5t-25.5 59.5q0 37 25.5 62t61.5 25t60.5 -25t24.5 -62q0 -35 -25 -59.5t-60 -24.5zM382 -10q-129 0 -205 70t-76 213v241
q0 59 -76 67v40h321v-40q-76 -8 -76 -67v-230q0 -212 149 -212q71 0 113.5 51.5t42.5 154.5v236q0 29 -21 46t-59 21v40h232v-40q-38 -4 -59.5 -21t-21.5 -46v-263q0 -120 -67 -190.5t-197 -70.5z" />
    <glyph glyph-name="Yacute" unicode="&#xdd;" horiz-adv-x="697" 
d="M356 713q-18 18 2 42l90 112q61 74 109 24q51 -55 -39 -111l-124 -73q-19 -13 -38 6zM171 0v40q95 8 95 67v109q0 56 -21 85l-113 170q-29 44 -40 59.5t-32.5 32.5t-44.5 18v40h313v-40q-35 -3 -44.5 -22.5t15.5 -64.5l95 -147q7 -14 14 0l104 152q20 24 9 51.5t-56 30.5
v40h217v-40q-9 -1 -17.5 -4.5t-15 -7t-15 -11t-12.5 -11.5t-12.5 -15t-10.5 -14t-10.5 -15t-9.5 -13l-122 -183q-21 -31 -21 -91v-109q0 -59 96 -67v-40h-361z" />
    <glyph glyph-name="Thorn" unicode="&#xde;" horiz-adv-x="648" 
d="M352 491q140 0 205.5 -48t65.5 -132t-65.5 -132t-205.5 -48h-22q-48 0 -54 -37q9 -46 75 -54v-40h-321v40q76 9 76 67v407q0 59 -76 67v40h321v-40q-66 -6 -75 -54q6 -36 54 -36h22zM352 195q67 0 87.5 29t20.5 87t-20.5 87t-87.5 29h-22q-30 0 -42.5 -12.5t-12.5 -40.5
v-126q0 -28 12.5 -40.5t42.5 -12.5h22z" />
    <glyph glyph-name="germandbls" unicode="&#xdf;" horiz-adv-x="635" 
d="M130 -5q-63 0 -110 30v44q34 -8 48 0t14 32v351q0 89 67.5 137t167.5 48q95 0 152 -44t57 -114q0 -87 -80 -133q149 -41 149 -165q0 -66 -43 -108t-105 -58t-142 -16v46q62 5 98 40.5t36 100.5q0 124 -134 124v45q39 0 62 36t23 88q0 46 -20.5 79.5t-62.5 33.5
q-46 0 -60.5 -30.5t-14.5 -105.5v-369q0 -42 -27 -67t-75 -25z" />
    <glyph glyph-name="agrave" unicode="&#xe0;" horiz-adv-x="544" 
d="M370 543q-19 -19 -38 -6l-124 73q-92 56 -40 111q49 49 109 -24l90 -112q21 -23 3 -42zM162 -6q-57 0 -94.5 27.5t-37.5 82.5q0 62 57.5 97t189.5 58q28 4 36.5 13t8.5 34v6q0 56 -13 79.5t-43 23.5q-60 0 -60 -70q0 -33 -23.5 -50t-55.5 -17q-33 0 -51 17.5t-18 43.5
q0 56 72.5 88.5t170.5 32.5q90 0 130.5 -40.5t40.5 -154.5v-163q0 -26 11 -39t32 -4v-22q-18 -43 -85 -43q-47 0 -72.5 20.5t-31.5 45.5q-2 11 -7 12.5t-13 -7.5q-58 -71 -144 -71zM235 77q40 0 63.5 29t23.5 73v11q0 17 -8.5 23t-31.5 5q-55 -3 -78 -28.5t-23 -56.5
q0 -25 13.5 -40.5t40.5 -15.5z" />
    <glyph glyph-name="aacute" unicode="&#xe1;" horiz-adv-x="544" 
d="M233 543q-18 18 2 42l90 112q61 74 109 24q52 -55 -40 -111l-123 -73q-19 -13 -38 6zM162 -6q-57 0 -94.5 27.5t-37.5 82.5q0 62 57.5 97t189.5 58q28 4 36.5 13t8.5 34v6q0 56 -13 79.5t-43 23.5q-60 0 -60 -70q0 -33 -23.5 -50t-55.5 -17q-33 0 -51 17.5t-18 43.5
q0 56 72.5 88.5t170.5 32.5q90 0 130.5 -40.5t40.5 -154.5v-163q0 -26 11 -39t32 -4v-22q-18 -43 -85 -43q-47 0 -72.5 20.5t-31.5 45.5q-2 11 -7 12.5t-13 -7.5q-58 -71 -144 -71zM235 77q40 0 63.5 29t23.5 73v11q0 17 -8.5 23t-31.5 5q-55 -3 -78 -28.5t-23 -56.5
q0 -25 13.5 -40.5t40.5 -15.5z" />
    <glyph glyph-name="acircumflex" unicode="&#xe2;" horiz-adv-x="544" 
d="M272 751l161 -180l-29 -28l-132 89l-132 -89l-29 28zM162 -6q-57 0 -94.5 27.5t-37.5 82.5q0 62 57.5 97t189.5 58q28 4 36.5 13t8.5 34v6q0 56 -13 79.5t-43 23.5q-60 0 -60 -70q0 -33 -23.5 -50t-55.5 -17q-33 0 -51 17.5t-18 43.5q0 56 72.5 88.5t170.5 32.5
q90 0 130.5 -40.5t40.5 -154.5v-163q0 -26 11 -39t32 -4v-22q-18 -43 -85 -43q-47 0 -72.5 20.5t-31.5 45.5q-2 11 -7 12.5t-13 -7.5q-58 -71 -144 -71zM235 77q40 0 63.5 29t23.5 73v11q0 17 -8.5 23t-31.5 5q-55 -3 -78 -28.5t-23 -56.5q0 -25 13.5 -40.5t40.5 -15.5z" />
    <glyph glyph-name="atilde" unicode="&#xe3;" horiz-adv-x="544" 
d="M390 526q-46 0 -113 35.5t-92 35.5q-20 0 -35 -12t-15 -34h-40q0 61 32 94.5t90 33.5q47 0 114 -36t91 -36q51 0 51 46h39q0 -61 -31 -94t-91 -33zM162 -6q-57 0 -94.5 27.5t-37.5 82.5q0 62 57.5 97t189.5 58q28 4 36.5 13t8.5 34v6q0 56 -13 79.5t-43 23.5
q-60 0 -60 -70q0 -33 -23.5 -50t-55.5 -17q-33 0 -51 17.5t-18 43.5q0 56 72.5 88.5t170.5 32.5q90 0 130.5 -40.5t40.5 -154.5v-163q0 -26 11 -39t32 -4v-22q-18 -43 -85 -43q-47 0 -72.5 20.5t-31.5 45.5q-2 11 -7 12.5t-13 -7.5q-58 -71 -144 -71zM235 77q40 0 63.5 29
t23.5 73v11q0 17 -8.5 23t-31.5 5q-55 -3 -78 -28.5t-23 -56.5q0 -25 13.5 -40.5t40.5 -15.5z" />
    <glyph glyph-name="adieresis" unicode="&#xe4;" horiz-adv-x="544" 
d="M154 498q-36 0 -61.5 24.5t-25.5 59.5q0 37 25.5 62t61.5 25q35 0 60 -25t25 -62q0 -35 -25 -59.5t-60 -24.5zM392 498q-36 0 -61.5 24.5t-25.5 59.5q0 37 25.5 62t61.5 25t60.5 -25t24.5 -62q0 -35 -25 -59.5t-60 -24.5zM162 -6q-57 0 -94.5 27.5t-37.5 82.5
q0 62 57.5 97t189.5 58q28 4 36.5 13t8.5 34v6q0 56 -13 79.5t-43 23.5q-60 0 -60 -70q0 -33 -23.5 -50t-55.5 -17q-33 0 -51 17.5t-18 43.5q0 56 72.5 88.5t170.5 32.5q90 0 130.5 -40.5t40.5 -154.5v-163q0 -26 11 -39t32 -4v-22q-18 -43 -85 -43q-47 0 -72.5 20.5
t-31.5 45.5q-2 11 -7 12.5t-13 -7.5q-58 -71 -144 -71zM235 77q40 0 63.5 29t23.5 73v11q0 17 -8.5 23t-31.5 5q-55 -3 -78 -28.5t-23 -56.5q0 -25 13.5 -40.5t40.5 -15.5z" />
    <glyph glyph-name="aring" unicode="&#xe5;" horiz-adv-x="544" 
d="M272 532q-46 0 -79 31t-33 75t33.5 76t78.5 32q46 0 79.5 -32t33.5 -76q0 -45 -33.5 -75.5t-79.5 -30.5zM272 598q19 0 30 11.5t11 28.5t-11 29.5t-30 12.5t-29.5 -12.5t-10.5 -29.5t10.5 -28.5t29.5 -11.5zM162 -6q-57 0 -94.5 27.5t-37.5 82.5q0 62 57.5 97t189.5 58
q28 4 36.5 13t8.5 34v6q0 56 -13 79.5t-43 23.5q-60 0 -60 -70q0 -33 -23.5 -50t-55.5 -17q-33 0 -51 17.5t-18 43.5q0 56 72.5 88.5t170.5 32.5q90 0 130.5 -40.5t40.5 -154.5v-163q0 -26 11 -39t32 -4v-22q-18 -43 -85 -43q-47 0 -72.5 20.5t-31.5 45.5q-2 11 -7 12.5
t-13 -7.5q-58 -71 -144 -71zM235 77q40 0 63.5 29t23.5 73v11q0 17 -8.5 23t-31.5 5q-55 -3 -78 -28.5t-23 -56.5q0 -25 13.5 -40.5t40.5 -15.5z" />
    <glyph glyph-name="ae" unicode="&#xe6;" horiz-adv-x="822" 
d="M757 123l30 -27q-17 -36 -77 -69t-139 -33q-129 0 -198 82q-32 27 -54 0q-23 -29 -64 -55.5t-91 -26.5q-58 0 -96 27.5t-38 82.5q0 62 57.5 98t188.5 59q29 5 38 13.5t9 31.5v6q0 55 -14.5 78.5t-45.5 23.5q-57 0 -57 -70q0 -33 -23.5 -50t-55.5 -17q-33 0 -51 19t-18 45
q0 53 71.5 86t162.5 33q94 0 129 -45q68 45 159 45q82 0 137 -38.5t55 -102.5q0 -26 -11 -44.5t-24 -28t-42 -16.5t-45 -8.5t-53 -4.5l-79 -6q-31 -2 -25 -42q5 -44 49 -70.5t97 -26.5q73 0 118 51zM566 414q-41 0 -61 -33t-21 -81q0 -27 7.5 -39t26.5 -11l36 4
q50 5 66.5 19t16.5 45q0 40 -17.5 68t-53.5 28zM322 183v6q0 17 -8.5 23t-31.5 4q-38 -2 -62.5 -18t-31 -30t-6.5 -24q0 -27 16.5 -42t39.5 -15q84 0 84 96z" />
    <glyph glyph-name="ccedilla" unicode="&#xe7;" horiz-adv-x="515" 
d="M355 73q58 0 96 51l29 -21q-12 -31 -50.5 -61t-94.5 -42h7l-20 -43q43 -2 73.5 -28.5t30.5 -66.5q0 -52 -46 -80.5t-108 -28.5q-55 0 -92 25.5t-37 58.5q0 36 33.5 49.5t61.5 -17.5q0 -20 11.5 -44t34.5 -24q21 0 31.5 18.5t10.5 44.5q0 47 -32 47q-5 0 -19.5 -3.5
t-24.5 -3.5q-20 0 -29 13t-2 30l24 49q-89 11 -151 70t-62 158q0 59 22.5 105.5t60 74t82 42t91.5 14.5q83 0 138.5 -40.5t55.5 -95.5q0 -29 -16 -49t-51 -20q-60 0 -73 68q0 3 -2 22t-4 26.5t-8 20t-17.5 17.5t-29.5 5q-88 0 -88 -133q0 -93 45.5 -150.5t118.5 -57.5z" />
    <glyph glyph-name="egrave" unicode="&#xe8;" horiz-adv-x="531" 
d="M314 543q-19 -19 -38 -6l-124 73q-92 56 -39 111q48 49 108 -24l91 -112q19 -24 2 -42zM279 -6q-102 0 -175.5 59t-73.5 170q0 78 39.5 133.5t96.5 79.5t122 24q82 0 137 -38.5t55 -102.5q0 -26 -11 -44.5t-24 -28t-42 -16.5t-45 -8.5t-53 -4.5l-78 -6q-31 -2 -25 -42
q5 -44 48.5 -70.5t97.5 -26.5q73 0 118 51l30 -27q-17 -35 -77 -68.5t-140 -33.5zM227 250l36 4q50 5 66.5 19t16.5 45q0 40 -18 68t-54 28q-40 0 -60.5 -33.5t-20.5 -80.5q0 -27 7.5 -39t26.5 -11z" />
    <glyph glyph-name="eacute" unicode="&#xe9;" horiz-adv-x="531" 
d="M219 543q-18 18 2 42l90 112q61 74 109 24q52 -55 -40 -111l-123 -73q-19 -13 -38 6zM279 -6q-102 0 -175.5 59t-73.5 170q0 78 39.5 133.5t96.5 79.5t122 24q82 0 137 -38.5t55 -102.5q0 -26 -11 -44.5t-24 -28t-42 -16.5t-45 -8.5t-53 -4.5l-78 -6q-31 -2 -25 -42
q5 -44 48.5 -70.5t97.5 -26.5q73 0 118 51l30 -27q-17 -35 -77 -68.5t-140 -33.5zM227 250l36 4q50 5 66.5 19t16.5 45q0 40 -18 68t-54 28q-40 0 -60.5 -33.5t-20.5 -80.5q0 -27 7.5 -39t26.5 -11z" />
    <glyph glyph-name="ecircumflex" unicode="&#xea;" horiz-adv-x="531" 
d="M259 751l161 -180l-29 -28l-132 89l-132 -89l-29 28zM279 -6q-102 0 -175.5 59t-73.5 170q0 78 39.5 133.5t96.5 79.5t122 24q82 0 137 -38.5t55 -102.5q0 -26 -11 -44.5t-24 -28t-42 -16.5t-45 -8.5t-53 -4.5l-78 -6q-31 -2 -25 -42q5 -44 48.5 -70.5t97.5 -26.5
q73 0 118 51l30 -27q-17 -35 -77 -68.5t-140 -33.5zM227 250l36 4q50 5 66.5 19t16.5 45q0 40 -18 68t-54 28q-40 0 -60.5 -33.5t-20.5 -80.5q0 -27 7.5 -39t26.5 -11z" />
    <glyph glyph-name="edieresis" unicode="&#xeb;" horiz-adv-x="531" 
d="M140 498q-36 0 -61.5 24.5t-25.5 59.5q0 37 25.5 62t61.5 25q35 0 60 -25t25 -62q0 -35 -25 -59.5t-60 -24.5zM378 498q-36 0 -61.5 24.5t-25.5 59.5q0 37 25.5 62t61.5 25t60.5 -25t24.5 -62q0 -35 -25 -59.5t-60 -24.5zM279 -6q-102 0 -175.5 59t-73.5 170
q0 78 39.5 133.5t96.5 79.5t122 24q82 0 137 -38.5t55 -102.5q0 -26 -11 -44.5t-24 -28t-42 -16.5t-45 -8.5t-53 -4.5l-78 -6q-31 -2 -25 -42q5 -44 48.5 -70.5t97.5 -26.5q73 0 118 51l30 -27q-17 -35 -77 -68.5t-140 -33.5zM227 250l36 4q50 5 66.5 19t16.5 45
q0 40 -18 68t-54 28q-40 0 -60.5 -33.5t-20.5 -80.5q0 -27 7.5 -39t26.5 -11z" />
    <glyph glyph-name="igrave" unicode="&#xec;" 
d="M209 543q-19 -19 -38 -6l-124 73q-92 56 -39 111q48 49 108 -24l91 -112q19 -24 2 -42zM24 0v39q36 2 50 17t14 55v229q0 33 -16 44t-47 8v39l163 27q50 7 50 -40v-307q0 -40 13.5 -55t48.5 -17v-39h-276z" />
    <glyph glyph-name="iacute" unicode="&#xed;" 
d="M114 543q-18 18 2 42l90 112q61 74 109 24q52 -55 -40 -111l-123 -73q-19 -13 -38 6zM24 0v39q36 2 50 17t14 55v229q0 33 -16 44t-47 8v39l163 27q50 7 50 -40v-307q0 -40 13.5 -55t48.5 -17v-39h-276z" />
    <glyph glyph-name="icircumflex" unicode="&#xee;" 
d="M154 751l161 -180l-29 -28l-132 89l-132 -89l-29 28zM24 0v39q36 2 50 17t14 55v229q0 33 -16 44t-47 8v39l163 27q50 7 50 -40v-307q0 -40 13.5 -55t48.5 -17v-39h-276z" />
    <glyph glyph-name="idieresis" unicode="&#xef;" 
d="M36 498q-36 0 -61.5 24.5t-25.5 59.5q0 37 25.5 62t61.5 25q35 0 60 -25t25 -62q0 -35 -25 -59.5t-60 -24.5zM274 498q-36 0 -61.5 24.5t-25.5 59.5q0 37 25.5 62t61.5 25t60.5 -25t24.5 -62q0 -35 -25 -59.5t-60 -24.5zM24 0v39q36 2 50 17t14 55v229q0 33 -16 44t-47 8
v39l163 27q50 7 50 -40v-307q0 -40 13.5 -55t48.5 -17v-39h-276z" />
    <glyph glyph-name="eth" unicode="&#xf0;" horiz-adv-x="631" 
d="M232 -6q-84 0 -143 59.5t-59 166.5q0 110 67 175t153 65q29 0 56 -8t39.5 -15.5t22.5 -9.5t13 8.5t3 39.5v33v11l-76 -23l-9 33l77 22q-29 79 -151 70v45q13 0 52 1t55.5 0.5t47.5 -4.5t48 -12.5t37 -25t33 -40.5l58 16l9 -33l-53 -15q22 -60 22 -162v-290q0 -24 14 -32
t48 0v-44q-47 -30 -110 -30q-43 0 -69.5 20.5t-32.5 52.5q-52 -74 -152 -74zM299 75q34 0 59.5 27t25.5 85v44q0 86 -35.5 130t-76.5 44t-62 -37t-21 -96q0 -78 31.5 -137.5t78.5 -59.5z" />
    <glyph glyph-name="ntilde" unicode="&#xf1;" horiz-adv-x="626" 
d="M402 526q-46 0 -113 35.5t-92 35.5q-21 0 -35.5 -12t-14.5 -34h-40q0 61 32 94.5t90 33.5q47 0 114 -36t91 -36q51 0 51 46h39q0 -61 -31 -94t-91 -33zM514 -6q-50 0 -80 28t-30 82v162q0 46 -22.5 77.5t-60.5 31.5q-39 0 -61 -31.5t-22 -77.5v-155q0 -40 13.5 -55
t48.5 -17v-39h-276v39q36 2 50 17t14 55v229q0 33 -16 44t-47 8v39l163 27q50 7 50 -32q0 -16 6 -24.5t14 -8t14 8.5q56 62 140 62q142 0 142 -175v-187q0 -26 10.5 -38.5t31.5 -4.5v-22q-18 -43 -82 -43z" />
    <glyph glyph-name="ograve" unicode="&#xf2;" horiz-adv-x="553" 
d="M333 543q-19 -19 -38 -6l-124 73q-92 56 -39 111q48 49 108 -24l91 -112q19 -24 2 -42zM278 -6q-101 0 -174.5 61t-73.5 175q0 77 37 130.5t91 76.5t117 23q102 0 175 -61t73 -175q0 -113 -72.5 -171.5t-172.5 -58.5zM293 40q69 0 69 138q0 97 -29 167t-73 70
q-69 0 -69 -139q0 -97 29.5 -166.5t72.5 -69.5z" />
    <glyph glyph-name="oacute" unicode="&#xf3;" horiz-adv-x="553" 
d="M238 543q-18 18 2 42l90 112q61 74 109 24q52 -55 -40 -111l-123 -73q-19 -13 -38 6zM278 -6q-101 0 -174.5 61t-73.5 175q0 77 37 130.5t91 76.5t117 23q102 0 175 -61t73 -175q0 -113 -72.5 -171.5t-172.5 -58.5zM293 40q69 0 69 138q0 97 -29 167t-73 70
q-69 0 -69 -139q0 -97 29.5 -166.5t72.5 -69.5z" />
    <glyph glyph-name="ocircumflex" unicode="&#xf4;" horiz-adv-x="553" 
d="M278 751l161 -180l-29 -28l-132 89l-132 -89l-29 28zM278 -6q-101 0 -174.5 61t-73.5 175q0 77 37 130.5t91 76.5t117 23q102 0 175 -61t73 -175q0 -113 -72.5 -171.5t-172.5 -58.5zM293 40q69 0 69 138q0 97 -29 167t-73 70q-69 0 -69 -139q0 -97 29.5 -166.5
t72.5 -69.5z" />
    <glyph glyph-name="otilde" unicode="&#xf5;" horiz-adv-x="553" 
d="M365 526q-46 0 -113 35.5t-92 35.5q-21 0 -35.5 -12t-14.5 -34h-40q0 61 32 94.5t90 33.5q47 0 114 -36t91 -36q51 0 51 46h39q0 -61 -31 -94t-91 -33zM278 -6q-101 0 -174.5 61t-73.5 175q0 77 37 130.5t91 76.5t117 23q102 0 175 -61t73 -175q0 -113 -72.5 -171.5
t-172.5 -58.5zM293 40q69 0 69 138q0 97 -29 167t-73 70q-69 0 -69 -139q0 -97 29.5 -166.5t72.5 -69.5z" />
    <glyph glyph-name="odieresis" unicode="&#xf6;" horiz-adv-x="553" 
d="M159 498q-36 0 -61.5 24.5t-25.5 59.5q0 37 25.5 62t61.5 25q35 0 60 -25t25 -62q0 -35 -25 -59.5t-60 -24.5zM397 498q-36 0 -61.5 24.5t-25.5 59.5q0 37 25.5 62t61.5 25t60.5 -25t24.5 -62q0 -35 -25 -59.5t-60 -24.5zM278 -6q-101 0 -174.5 61t-73.5 175
q0 77 37 130.5t91 76.5t117 23q102 0 175 -61t73 -175q0 -113 -72.5 -171.5t-172.5 -58.5zM293 40q69 0 69 138q0 97 -29 167t-73 70q-69 0 -69 -139q0 -97 29.5 -166.5t72.5 -69.5z" />
    <glyph glyph-name="divide" unicode="&#xf7;" horiz-adv-x="470" 
d="M237 336q-30 0 -50 20t-20 49t20 48.5t50 19.5q29 0 48.5 -19.5t19.5 -48.5t-19.5 -49t-48.5 -20zM50 227v49h370v-49h-370zM237 30q-30 0 -50 20t-20 49t20 48.5t50 19.5q29 0 48.5 -19.5t19.5 -48.5t-19.5 -49t-48.5 -20z" />
    <glyph glyph-name="oslash" unicode="&#xf8;" horiz-adv-x="553" 
d="M443 405q80 -65 80 -181q0 -113 -72.5 -171.5t-172.5 -58.5q-80 0 -142 37l-27 -32l-23 20l25 30q-81 66 -81 181q0 77 37 130.5t91 76.5t117 23q82 0 143 -38l24 29l23 -20zM191 276q0 -59 13 -114l136 165q-32 88 -80 88q-69 0 -69 -139zM293 40q69 0 69 138
q0 62 -12 113l-136 -165q14 -40 34.5 -63t44.5 -23z" />
    <glyph glyph-name="ugrave" unicode="&#xf9;" horiz-adv-x="631" 
d="M384 543q-19 -19 -38 -6l-124 73q-90 56 -39 111q48 49 108 -24l91 -112q20 -24 2 -42zM234 -6q-66 0 -106 39.5t-40 146.5v159q0 32 -16 43t-47 10v39l163 27q50 7 50 -40v-214q0 -54 21.5 -87t61.5 -33t61.5 33t21.5 87v135q0 32 -16 43t-47 10v39l162 27q51 7 51 -40
v-316q0 -26 10.5 -39t31.5 -4v-22q-18 -43 -84 -43q-33 0 -55.5 13t-30.5 26t-11 28q-5 21 -18 21q-8 0 -17 -13q-55 -75 -146 -75z" />
    <glyph glyph-name="uacute" unicode="&#xfa;" horiz-adv-x="631" 
d="M280 543q-18 18 2 42l90 112q61 74 109 24q52 -55 -40 -111l-124 -73q-19 -13 -37 6zM234 -6q-66 0 -106 39.5t-40 146.5v159q0 32 -16 43t-47 10v39l163 27q50 7 50 -40v-214q0 -54 21.5 -87t61.5 -33t61.5 33t21.5 87v135q0 32 -16 43t-47 10v39l162 27q51 7 51 -40
v-316q0 -26 10.5 -39t31.5 -4v-22q-18 -43 -84 -43q-33 0 -55.5 13t-30.5 26t-11 28q-5 21 -18 21q-8 0 -17 -13q-55 -75 -146 -75z" />
    <glyph glyph-name="ucircumflex" unicode="&#xfb;" horiz-adv-x="631" 
d="M312 751l161 -180l-28 -28l-133 89l-132 -89l-28 28zM234 -6q-66 0 -106 39.5t-40 146.5v159q0 32 -16 43t-47 10v39l163 27q50 7 50 -40v-214q0 -54 21.5 -87t61.5 -33t61.5 33t21.5 87v135q0 32 -16 43t-47 10v39l162 27q51 7 51 -40v-316q0 -26 10.5 -39t31.5 -4v-22
q-18 -43 -84 -43q-33 0 -55.5 13t-30.5 26t-11 28q-5 21 -18 21q-8 0 -17 -13q-55 -75 -146 -75z" />
    <glyph glyph-name="udieresis" unicode="&#xfc;" horiz-adv-x="631" 
d="M155 498q-36 0 -61.5 24.5t-25.5 59.5q0 37 25.5 62t61.5 25t60.5 -25t24.5 -62q0 -35 -25 -59.5t-60 -24.5zM394 498q-37 0 -62 24.5t-25 59.5q0 37 25 62t62 25q35 0 60 -25t25 -62q0 -35 -25 -59.5t-60 -24.5zM234 -6q-66 0 -106 39.5t-40 146.5v159q0 32 -16 43
t-47 10v39l163 27q50 7 50 -40v-214q0 -54 21.5 -87t61.5 -33t61.5 33t21.5 87v135q0 32 -16 43t-47 10v39l162 27q51 7 51 -40v-316q0 -26 10.5 -39t31.5 -4v-22q-18 -43 -84 -43q-33 0 -55.5 13t-30.5 26t-11 28q-5 21 -18 21q-8 0 -17 -13q-55 -75 -146 -75z" />
    <glyph glyph-name="yacute" unicode="&#xfd;" horiz-adv-x="574" 
d="M246 543q-18 18 2 42l90 112q61 74 109 24q52 -55 -40 -111l-123 -73q-19 -13 -38 6zM161 -198q-54 0 -89 23.5t-35 61.5q0 26 16 45.5t50 19.5q29 0 43.5 -16.5t16.5 -36t10 -36t25 -16.5q28 0 35 26q16 44 -10 113l-131 341q-13 36 -31.5 55.5t-50.5 30.5v38h264v-38
q-37 -11 -42.5 -30t10.5 -56l68 -173q9 -23 16.5 -30t15 0.5t15.5 30.5l30 81q33 101 25.5 133t-57.5 44v38h209v-38q-44 -11 -61.5 -28.5t-33.5 -57.5l-141 -373q-33 -86 -70.5 -119t-96.5 -33z" />
    <glyph glyph-name="thorn" unicode="&#xfe;" horiz-adv-x="609" 
d="M9 -190v38q36 3 50 18t14 55v614q0 33 -16 44t-47 8v39l163 27q50 7 50 -40v-183q0 -9 4 -13t9.5 -2.5t11.5 6.5q43 39 127 39q85 0 144.5 -60t59.5 -167q0 -110 -67 -174.5t-153 -64.5q-23 0 -47 5.5t-38.5 11t-27 8.5t-18 -1.5t-5.5 -19.5v-77q0 -40 13.5 -55t48.5 -18
v-38h-276zM335 39q83 0 83 146q0 84 -27.5 139t-78.5 55q-38 0 -63.5 -32.5t-25.5 -110.5v-59q0 -72 35.5 -105t76.5 -33z" />
    <glyph glyph-name="ydieresis" unicode="&#xff;" horiz-adv-x="574" 
d="M167 498q-36 0 -61.5 24.5t-25.5 59.5q0 37 25.5 62t61.5 25q35 0 60 -25t25 -62q0 -35 -25 -59.5t-60 -24.5zM405 498q-36 0 -61.5 24.5t-25.5 59.5q0 37 25.5 62t61.5 25t60.5 -25t24.5 -62q0 -35 -25 -59.5t-60 -24.5zM161 -198q-54 0 -89 23.5t-35 61.5q0 26 16 45.5
t50 19.5q29 0 43.5 -16.5t16.5 -36t10 -36t25 -16.5q28 0 35 26q16 44 -10 113l-131 341q-13 36 -31.5 55.5t-50.5 30.5v38h264v-38q-37 -11 -42.5 -30t10.5 -56l68 -173q9 -23 16.5 -30t15 0.5t15.5 30.5l30 81q33 101 25.5 133t-57.5 44v38h209v-38q-44 -11 -61.5 -28.5
t-33.5 -57.5l-141 -373q-33 -86 -70.5 -119t-96.5 -33z" />
    <glyph glyph-name="Amacron" unicode="&#x100;" horiz-adv-x="734" 
d="M228 750q-23 0 -23 19v50q0 19 23 19h277q23 0 23 -19v-50q0 -19 -23 -19h-277zM20 0v40q43 10 64.5 35t43.5 75l160 355q29 64 29 116l88 8l212 -456q6 -13 16 -35t14 -31t12.5 -23.5t15 -21t16.5 -13t23 -10.5v-39h-298v40q75 13 38 90l-7 12q-7 21 -52 21h-144
q-43 0 -57 -30l3 4q-34 -79 69 -97v-40h-246zM256 215h132q8 0 12 6t0 19l-71 151q-5 13 -9 13t-9 -12l-71 -159q-2 -8 3.5 -13t12.5 -5z" />
    <glyph glyph-name="amacron" unicode="&#x101;" horiz-adv-x="544" 
d="M145 580q-23 0 -23 19v50q0 19 23 19h277q23 0 23 -19v-50q0 -19 -23 -19h-277zM162 -6q-57 0 -94.5 27.5t-37.5 82.5q0 62 57.5 97t189.5 58q28 4 36.5 13t8.5 34v6q0 56 -13 79.5t-43 23.5q-60 0 -60 -70q0 -33 -23.5 -50t-55.5 -17q-33 0 -51 17.5t-18 43.5
q0 56 72.5 88.5t170.5 32.5q90 0 130.5 -40.5t40.5 -154.5v-163q0 -26 11 -39t32 -4v-22q-18 -43 -85 -43q-47 0 -72.5 20.5t-31.5 45.5q-2 11 -7 12.5t-13 -7.5q-58 -71 -144 -71zM235 77q40 0 63.5 29t23.5 73v11q0 17 -8.5 23t-31.5 5q-55 -3 -78 -28.5t-23 -56.5
q0 -25 13.5 -40.5t40.5 -15.5z" />
    <glyph glyph-name="Abreve" unicode="&#x102;" horiz-adv-x="734" 
d="M354 705q-63 0 -109 37t-46 108q0 11 10 11h39q6 0 10 -13q15 -53 96 -53q82 0 97 53q3 13 10 13h39q10 0 10 -11q0 -71 -46.5 -108t-109.5 -37zM20 0v40q43 10 64.5 35t43.5 75l160 355q29 64 29 116l88 8l212 -456q6 -13 16 -35t14 -31t12.5 -23.5t15 -21t16.5 -13
t23 -10.5v-39h-298v40q75 13 38 90l-7 12q-7 21 -52 21h-144q-43 0 -57 -30l3 4q-34 -79 69 -97v-40h-246zM256 215h132q8 0 12 6t0 19l-71 151q-5 13 -9 13t-9 -12l-71 -159q-2 -8 3.5 -13t12.5 -5z" />
    <glyph glyph-name="abreve" unicode="&#x103;" horiz-adv-x="544" 
d="M272 535q-63 0 -109 37t-46 108q0 11 10 11h39q6 0 10 -13q15 -53 96 -53q82 0 97 53q3 13 10 13h39q10 0 10 -11q0 -71 -46.5 -108t-109.5 -37zM162 -6q-57 0 -94.5 27.5t-37.5 82.5q0 62 57.5 97t189.5 58q28 4 36.5 13t8.5 34v6q0 56 -13 79.5t-43 23.5q-60 0 -60 -70
q0 -33 -23.5 -50t-55.5 -17q-33 0 -51 17.5t-18 43.5q0 56 72.5 88.5t170.5 32.5q90 0 130.5 -40.5t40.5 -154.5v-163q0 -26 11 -39t32 -4v-22q-18 -43 -85 -43q-47 0 -72.5 20.5t-31.5 45.5q-2 11 -7 12.5t-13 -7.5q-58 -71 -144 -71zM235 77q40 0 63.5 29t23.5 73v11
q0 17 -8.5 23t-31.5 5q-55 -3 -78 -28.5t-23 -56.5q0 -25 13.5 -40.5t40.5 -15.5z" />
    <glyph glyph-name="Aogonek" unicode="&#x104;" horiz-adv-x="734" 
d="M609 0q-100 -64 -100 -116q0 -25 15 -42.5t44 -17.5q49 0 62 56h55q-3 -17 -11 -35.5t-26.5 -41.5t-57 -38t-90.5 -15q-57 0 -97 25.5t-40 82.5q0 56 51.5 94t111.5 48h-110v40q75 13 38 90l-7 12q-7 21 -52 21h-144q-43 0 -57 -30l3 4q-34 -79 69 -97v-40h-246v40
q43 10 64.5 35t43.5 75l160 355q29 64 29 116l88 8l212 -456q6 -13 16 -35t14 -31t12.5 -23.5t15 -21t16.5 -13t23 -10.5v-39h-105zM388 215q8 0 12 6t0 19l-71 151q-5 13 -9 13t-9 -12l-71 -159q-2 -8 3.5 -13t12.5 -5h132z" />
    <glyph glyph-name="aogonek" unicode="&#x105;" horiz-adv-x="544" 
d="M457 -4q-111 -15 -111 -93q0 -60 52 -60q48 0 73 59h38q-3 -17 -11 -36t-26 -42.5t-55 -39t-86 -15.5q-131 0 -131 100q0 59 46.5 94t114.5 49q-29 21 -35 48q-2 11 -7 12.5t-13 -7.5q-58 -71 -144 -71q-57 0 -94.5 27.5t-37.5 82.5q0 62 57.5 97t189.5 58q28 4 36.5 13
t8.5 34v6q0 56 -13 79.5t-43 23.5q-60 0 -60 -70q0 -33 -23.5 -50t-55.5 -17q-33 0 -51 17.5t-18 43.5q0 56 72.5 88.5t170.5 32.5q90 0 130.5 -40.5t40.5 -154.5v-163q0 -26 11 -39t32 -4v-22q-14 -34 -58 -41zM322 179v11q0 17 -8.5 23t-31.5 5q-55 -3 -78 -28.5
t-23 -56.5q0 -25 13.5 -40.5t40.5 -15.5q40 0 63.5 29t23.5 73z" />
    <glyph glyph-name="Cacute" unicode="&#x106;" horiz-adv-x="674" 
d="M315 713q-18 18 2 42l90 112q61 74 109 24q52 -55 -40 -111l-123 -73q-19 -13 -38 6zM374 -10q-143 0 -243.5 87.5t-100.5 237.5q0 148 100 235t252 87q119 0 190 -52.5t71 -122.5q0 -38 -23 -65t-69 -27q-44 0 -67 25.5t-25 63.5q-3 60 -29.5 98.5t-80.5 38.5
q-65 0 -99.5 -58.5t-32.5 -158.5q1 -143 72.5 -220t166.5 -77q90 0 153 70l30 -25q-27 -50 -94 -93.5t-171 -43.5z" />
    <glyph glyph-name="cacute" unicode="&#x107;" horiz-adv-x="515" 
d="M244 543q-18 18 2 42l90 112q61 74 109 24q52 -55 -40 -111l-123 -73q-19 -13 -38 6zM277 -6q-99 0 -173 60.5t-74 169.5q0 59 22.5 105.5t60 74t82 42t91.5 14.5q83 0 138.5 -40.5t55.5 -95.5q0 -29 -16 -49t-51 -20q-60 0 -73 68q0 3 -2 22t-4 26.5t-8 20t-17.5 17.5
t-29.5 5q-88 0 -88 -133q0 -93 45.5 -150.5t118.5 -57.5q58 0 96 51l29 -21q-15 -39 -70.5 -74t-132.5 -35z" />
    <glyph glyph-name="Cdotaccent" unicode="&#x10a;" horiz-adv-x="674" 
d="M355 668q-36 0 -61.5 24.5t-25.5 59.5q0 37 25.5 62t61.5 25q35 0 60 -25t25 -62q0 -35 -25 -59.5t-60 -24.5zM374 -10q-143 0 -243.5 87.5t-100.5 237.5q0 148 100 235t252 87q119 0 190 -52.5t71 -122.5q0 -38 -23 -65t-69 -27q-44 0 -67 25.5t-25 63.5
q-3 60 -29.5 98.5t-80.5 38.5q-65 0 -99.5 -58.5t-32.5 -158.5q1 -143 72.5 -220t166.5 -77q90 0 153 70l30 -25q-27 -50 -94 -93.5t-171 -43.5z" />
    <glyph glyph-name="cdotaccent" unicode="&#x10b;" horiz-adv-x="515" 
d="M284 498q-36 0 -61.5 24.5t-25.5 59.5q0 37 25.5 62t61.5 25q35 0 60 -25t25 -62q0 -35 -25 -59.5t-60 -24.5zM277 -6q-99 0 -173 60.5t-74 169.5q0 59 22.5 105.5t60 74t82 42t91.5 14.5q83 0 138.5 -40.5t55.5 -95.5q0 -29 -16 -49t-51 -20q-60 0 -73 68q0 3 -2 22
t-4 26.5t-8 20t-17.5 17.5t-29.5 5q-88 0 -88 -133q0 -93 45.5 -150.5t118.5 -57.5q58 0 96 51l29 -21q-15 -39 -70.5 -74t-132.5 -35z" />
    <glyph glyph-name="Ccaron" unicode="&#x10c;" horiz-adv-x="674" 
d="M355 673l-161 180l29 28l132 -88l132 88l29 -28zM374 -10q-143 0 -243.5 87.5t-100.5 237.5q0 148 100 235t252 87q119 0 190 -52.5t71 -122.5q0 -38 -23 -65t-69 -27q-44 0 -67 25.5t-25 63.5q-3 60 -29.5 98.5t-80.5 38.5q-65 0 -99.5 -58.5t-32.5 -158.5
q1 -143 72.5 -220t166.5 -77q90 0 153 70l30 -25q-27 -50 -94 -93.5t-171 -43.5z" />
    <glyph glyph-name="ccaron" unicode="&#x10d;" horiz-adv-x="515" 
d="M284 503l-161 180l29 28l132 -88l132 88l29 -28zM277 -6q-99 0 -173 60.5t-74 169.5q0 59 22.5 105.5t60 74t82 42t91.5 14.5q83 0 138.5 -40.5t55.5 -95.5q0 -29 -16 -49t-51 -20q-60 0 -73 68q0 3 -2 22t-4 26.5t-8 20t-17.5 17.5t-29.5 5q-88 0 -88 -133
q0 -93 45.5 -150.5t118.5 -57.5q58 0 96 51l29 -21q-15 -39 -70.5 -74t-132.5 -35z" />
    <glyph glyph-name="Dcaron" unicode="&#x10e;" horiz-adv-x="737" 
d="M333 673l-161 180l29 28l132 -88l132 88l29 -28zM30 0v40q76 9 76 67v406q0 60 -76 68v40h308q182 0 270.5 -75.5t88.5 -229.5q0 -82 -27 -143.5t-64.5 -93t-88 -50.5t-84.5 -23t-68 -4q-19 0 -89 3.5t-104 3.5q-63 0 -142 -9zM337 52q84 0 128.5 73t44.5 191
q0 126 -47.5 191t-114.5 65h-9q-64 0 -64 -61v-402q0 -57 62 -57z" />
    <glyph glyph-name="dcaron" unicode="&#x10f;" horiz-adv-x="669" 
d="M610 473q-36 0 -36 40l-3 75q-1 72 66 72q32 0 45 -22.5t1 -59.5l-24 -67q-7 -21 -18 -29.5t-31 -8.5zM221 -6q-76 0 -133.5 60t-57.5 165q0 113 64.5 177t150.5 64q29 0 56 -8t40.5 -16t24.5 -10t14.5 8.5t3.5 40.5v60q0 33 -16 44t-47 8v39l163 27q50 7 50 -40v-511
q0 -26 10.5 -39t31.5 -4v-22q-18 -43 -81 -43q-29 0 -55 10t-34 31q-12 29 -32 29q-6 0 -25.5 -17.5t-53 -35t-74.5 -17.5zM299 75q34 0 59.5 27t25.5 85v47q0 90 -34 135.5t-77 45.5q-37 0 -59.5 -41t-22.5 -103q0 -77 31 -136.5t77 -59.5z" />
    <glyph glyph-name="Dcroat" unicode="&#x110;" horiz-adv-x="737" 
d="M338 621q182 0 270.5 -75.5t88.5 -229.5q0 -82 -27 -143.5t-64.5 -93t-88 -50.5t-84.5 -23t-68 -4q-19 0 -89 3.5t-104 3.5q-63 0 -142 -9v40q76 9 76 67v181h-75v45h75v180q0 60 -76 68v40h308zM337 52q84 0 128.5 73t44.5 191q0 126 -47.5 191t-114.5 65h-9
q-64 0 -64 -61v-178h94v-45h-94v-179q0 -57 62 -57z" />
    <glyph glyph-name="dcroat" unicode="&#x111;" horiz-adv-x="631" 
d="M596 498h-62v-396q0 -26 10.5 -39t31.5 -4v-22q-18 -43 -81 -43q-29 0 -55 10t-34 31q-12 29 -32 29q-6 0 -25.5 -17.5t-53 -35t-74.5 -17.5q-76 0 -133.5 60t-57.5 165q0 113 64.5 177t150.5 64q29 0 56 -8t40.5 -16t24.5 -10t14.5 8.5t3.5 40.5v23h-126v45h126
q-2 28 -18 37t-45 7v39l163 27q50 7 50 -40v-70h62v-45zM384 187v47q0 90 -34 135.5t-77 45.5q-37 0 -59.5 -41t-22.5 -103q0 -77 31 -136.5t77 -59.5q34 0 59.5 27t25.5 85z" />
    <glyph glyph-name="Emacron" unicode="&#x112;" horiz-adv-x="630" 
d="M198 750q-23 0 -23 19v50q0 19 23 19h277q23 0 23 -19v-50q0 -19 -23 -19h-277zM30 0v40q76 9 76 67v407q0 59 -76 67v40h508q13 0 14 -10q7 -68 21 -133h-25q-28 49 -55 71t-69 22h-85q-64 0 -64 -65v-105q0 -62 64 -62h40q58 0 78 15.5t26 58.5h22v-198h-22
q-6 42 -26 57.5t-78 15.5h-40q-64 0 -64 -62v-113q0 -63 53 -65l108 1q43 1 68.5 14.5t46.5 41.5l24 35h25q-21 -47 -30 -126q-2 -14 -16 -14h-524z" />
    <glyph glyph-name="emacron" unicode="&#x113;" horiz-adv-x="531" 
d="M132 580q-23 0 -23 19v50q0 19 23 19h277q23 0 23 -19v-50q0 -19 -23 -19h-277zM279 -6q-102 0 -175.5 59t-73.5 170q0 78 39.5 133.5t96.5 79.5t122 24q82 0 137 -38.5t55 -102.5q0 -26 -11 -44.5t-24 -28t-42 -16.5t-45 -8.5t-53 -4.5l-78 -6q-31 -2 -25 -42
q5 -44 48.5 -70.5t97.5 -26.5q73 0 118 51l30 -27q-17 -35 -77 -68.5t-140 -33.5zM227 250l36 4q50 5 66.5 19t16.5 45q0 40 -18 68t-54 28q-40 0 -60.5 -33.5t-20.5 -80.5q0 -27 7.5 -39t26.5 -11z" />
    <glyph glyph-name="Edotaccent" unicode="&#x116;" horiz-adv-x="630" 
d="M325 668q-36 0 -61.5 24.5t-25.5 59.5q0 37 25.5 62t61.5 25q35 0 60 -25t25 -62q0 -35 -25 -59.5t-60 -24.5zM30 0v40q76 9 76 67v407q0 59 -76 67v40h508q13 0 14 -10q7 -68 21 -133h-25q-28 49 -55 71t-69 22h-85q-64 0 -64 -65v-105q0 -62 64 -62h40q58 0 78 15.5
t26 58.5h22v-198h-22q-6 42 -26 57.5t-78 15.5h-40q-64 0 -64 -62v-113q0 -63 53 -65l108 1q43 1 68.5 14.5t46.5 41.5l24 35h25q-21 -47 -30 -126q-2 -14 -16 -14h-524z" />
    <glyph glyph-name="edotaccent" unicode="&#x117;" horiz-adv-x="531" 
d="M259 498q-36 0 -61.5 24.5t-25.5 59.5q0 37 25.5 62t61.5 25q35 0 60 -25t25 -62q0 -35 -25 -59.5t-60 -24.5zM279 -6q-102 0 -175.5 59t-73.5 170q0 78 39.5 133.5t96.5 79.5t122 24q82 0 137 -38.5t55 -102.5q0 -26 -11 -44.5t-24 -28t-42 -16.5t-45 -8.5t-53 -4.5
l-78 -6q-31 -2 -25 -42q5 -44 48.5 -70.5t97.5 -26.5q73 0 118 51l30 -27q-17 -35 -77 -68.5t-140 -33.5zM227 250l36 4q50 5 66.5 19t16.5 45q0 40 -18 68t-54 28q-40 0 -60.5 -33.5t-20.5 -80.5q0 -27 7.5 -39t26.5 -11z" />
    <glyph glyph-name="Eogonek" unicode="&#x118;" horiz-adv-x="630" 
d="M575 140h25q-21 -47 -30 -126q-2 -14 -16 -14h-86q-100 -64 -100 -116q0 -25 15 -42.5t44 -17.5q49 0 62 56h55q-3 -17 -11 -35.5t-26.5 -41.5t-57 -38t-90.5 -15q-57 0 -97 25.5t-40 82.5q0 56 51.5 94t111.5 48h-355v40q76 9 76 67v407q0 59 -76 67v40h508q13 0 14 -10
q7 -68 21 -133h-25q-28 49 -55 71t-69 22h-85q-64 0 -64 -65v-105q0 -62 64 -62h40q58 0 78 15.5t26 58.5h22v-198h-22q-6 42 -26 57.5t-78 15.5h-40q-64 0 -64 -62v-113q0 -63 53 -65l108 1q43 1 68.5 14.5t46.5 41.5z" />
    <glyph glyph-name="eogonek" unicode="&#x119;" horiz-adv-x="531" 
d="M350 2q-63 -26 -63 -92q0 -28 14.5 -46.5t42.5 -18.5q23 0 34 15.5t17 43.5h54q-3 -17 -11 -36t-26 -42.5t-54 -39t-85 -15.5q-55 0 -93.5 28t-38.5 80q0 77 79 121q-83 15 -136.5 72t-53.5 151q0 78 39.5 133.5t96.5 79.5t122 24q82 0 137 -38.5t55 -102.5
q0 -26 -11 -44.5t-24 -28t-42 -16.5t-45 -8.5t-53 -4.5l-78 -6q-31 -2 -25 -42q5 -44 48.5 -70.5t97.5 -26.5q73 0 118 51l30 -27q-13 -26 -52.5 -53.5t-93.5 -40.5zM274 414q-40 0 -60.5 -33.5t-20.5 -80.5q0 -27 7.5 -39t26.5 -11l36 4q50 5 66.5 19t16.5 45q0 40 -18 68
t-54 28z" />
    <glyph glyph-name="Ecaron" unicode="&#x11a;" horiz-adv-x="630" 
d="M325 673l-161 180l29 28l132 -88l132 88l29 -28zM30 0v40q76 9 76 67v407q0 59 -76 67v40h508q13 0 14 -10q7 -68 21 -133h-25q-28 49 -55 71t-69 22h-85q-64 0 -64 -65v-105q0 -62 64 -62h40q58 0 78 15.5t26 58.5h22v-198h-22q-6 42 -26 57.5t-78 15.5h-40
q-64 0 -64 -62v-113q0 -63 53 -65l108 1q43 1 68.5 14.5t46.5 41.5l24 35h25q-21 -47 -30 -126q-2 -14 -16 -14h-524z" />
    <glyph glyph-name="ecaron" unicode="&#x11b;" horiz-adv-x="531" 
d="M259 503l-161 180l29 28l132 -88l132 88l29 -28zM279 -6q-102 0 -175.5 59t-73.5 170q0 78 39.5 133.5t96.5 79.5t122 24q82 0 137 -38.5t55 -102.5q0 -26 -11 -44.5t-24 -28t-42 -16.5t-45 -8.5t-53 -4.5l-78 -6q-31 -2 -25 -42q5 -44 48.5 -70.5t97.5 -26.5
q73 0 118 51l30 -27q-17 -35 -77 -68.5t-140 -33.5zM227 250l36 4q50 5 66.5 19t16.5 45q0 40 -18 68t-54 28q-40 0 -60.5 -33.5t-20.5 -80.5q0 -27 7.5 -39t26.5 -11z" />
    <glyph glyph-name="Gbreve" unicode="&#x11e;" horiz-adv-x="722" 
d="M351 705q-63 0 -109 37t-46 108q0 11 10 11h39q6 0 10 -13q15 -53 96 -53q82 0 97 53q3 13 10 13h39q10 0 10 -11q0 -71 -46.5 -108t-109.5 -37zM366 -10q-135 0 -235.5 87.5t-100.5 235.5q0 149 100 236.5t252 87.5q118 0 190 -51.5t72 -116.5q0 -36 -23 -63.5
t-66 -27.5t-65.5 24t-24.5 60q-4 58 -33 96t-83 38q-64 0 -98 -58.5t-34 -155.5q0 -147 76 -243t157 -96q23 0 28.5 11.5t5.5 43.5v72q0 57 -16 72t-71 20v26l300 1v-27q-40 -6 -51.5 -21t-11.5 -71v-77q0 -62 5 -93q-31 19 -63 21.5t-58 -5.5t-69 -17t-83 -9z" />
    <glyph glyph-name="gbreve" unicode="&#x11f;" horiz-adv-x="558" 
d="M257 535q-63 0 -109 37t-46 108q0 11 10 11h39q6 0 10 -13q15 -53 96 -53q82 0 97 53q3 13 10 13h39q10 0 10 -11q0 -71 -46.5 -108t-109.5 -37zM220 -211q-88 0 -146.5 28.5t-58.5 81.5q0 16 5.5 29t17 22t20 14.5t24 11.5t19.5 7q18 5 18.5 7.5t-20.5 9.5
q-26 8 -42.5 28.5t-16.5 45.5q0 31 26 54t73 29q-90 46 -90 139q0 71 51 117.5t150 46.5q114 0 177 -66q1 28 16 45.5t44 17.5q23 0 39.5 -13t16.5 -41q0 -27 -17 -41t-41 -9q-16 3 -23 -4t-6 -20q0 -5 2 -18t2 -20q0 -67 -49 -113t-138 -46q-16 0 -37 2t-29 2
q-36 0 -36 -21q0 -12 14 -18.5t52 -13.5l101 -19q87 -16 132.5 -40t45.5 -72q0 -68 -88 -115.5t-208 -47.5zM267 174q50 0 50 92q0 37 -6 69t-24 57.5t-46 25.5q-50 0 -50 -92q0 -60 18 -106t58 -46zM272 -171q106 0 106 75q0 26 -19.5 36t-78.5 21q-5 0 -8 1l-27 5
q-46 8 -70 -11.5t-24 -47.5q0 -33 32 -56t89 -23z" />
    <glyph glyph-name="Gdotaccent" unicode="&#x120;" horiz-adv-x="722" 
d="M352 668q-36 0 -61.5 24.5t-25.5 59.5q0 37 25.5 62t61.5 25q35 0 60 -25t25 -62q0 -35 -25 -59.5t-60 -24.5zM366 -10q-135 0 -235.5 87.5t-100.5 235.5q0 149 100 236.5t252 87.5q118 0 190 -51.5t72 -116.5q0 -36 -23 -63.5t-66 -27.5t-65.5 24t-24.5 60q-4 58 -33 96
t-83 38q-64 0 -98 -58.5t-34 -155.5q0 -147 76 -243t157 -96q23 0 28.5 11.5t5.5 43.5v72q0 57 -16 72t-71 20v26l300 1v-27q-40 -6 -51.5 -21t-11.5 -71v-77q0 -62 5 -93q-31 19 -63 21.5t-58 -5.5t-69 -17t-83 -9z" />
    <glyph glyph-name="gdotaccent" unicode="&#x121;" horiz-adv-x="558" 
d="M257 498q-36 0 -61.5 24.5t-25.5 59.5q0 37 25.5 62t61.5 25q35 0 60 -25t25 -62q0 -35 -25 -59.5t-60 -24.5zM220 -211q-88 0 -146.5 28.5t-58.5 81.5q0 16 5.5 29t17 22t20 14.5t24 11.5t19.5 7q18 5 18.5 7.5t-20.5 9.5q-26 8 -42.5 28.5t-16.5 45.5q0 31 26 54t73 29
q-90 46 -90 139q0 71 51 117.5t150 46.5q114 0 177 -66q1 28 16 45.5t44 17.5q23 0 39.5 -13t16.5 -41q0 -27 -17 -41t-41 -9q-16 3 -23 -4t-6 -20q0 -5 2 -18t2 -20q0 -67 -49 -113t-138 -46q-16 0 -37 2t-29 2q-36 0 -36 -21q0 -12 14 -18.5t52 -13.5l101 -19
q87 -16 132.5 -40t45.5 -72q0 -68 -88 -115.5t-208 -47.5zM267 174q50 0 50 92q0 37 -6 69t-24 57.5t-46 25.5q-50 0 -50 -92q0 -60 18 -106t58 -46zM272 -171q106 0 106 75q0 26 -19.5 36t-78.5 21q-5 0 -8 1l-27 5q-46 8 -70 -11.5t-24 -47.5q0 -33 32 -56t89 -23z" />
    <glyph glyph-name="uni0122" unicode="&#x122;" horiz-adv-x="722" 
d="M366 -10q-135 0 -235.5 87.5t-100.5 235.5q0 149 100 236.5t252 87.5q118 0 190 -51.5t72 -116.5q0 -36 -23 -63.5t-66 -27.5t-65.5 24t-24.5 60q-4 58 -33 96t-83 38q-64 0 -98 -58.5t-34 -155.5q0 -147 76 -243t157 -96q23 0 28.5 11.5t5.5 43.5v72q0 57 -16 72t-71 20
v26l300 1v-27q-40 -6 -51.5 -21t-11.5 -71v-77q0 -62 5 -93q-31 19 -63 21.5t-58 -5.5t-69 -17t-83 -9zM330 -330l-25 28q55 48 55 83q0 15 -18 15q-34 0 -55.5 22.5t-21.5 55.5q0 37 24 61t62 24q43 0 65.5 -29t22.5 -77q0 -107 -109 -183z" />
    <glyph glyph-name="uni0123" unicode="&#x123;" horiz-adv-x="558" 
d="M305 781l26 -28q-56 -47 -56 -83q0 -15 18 -15q34 0 55.5 -22.5t21.5 -55.5q0 -37 -23.5 -61t-62.5 -24q-42 0 -65 29t-23 78q0 106 109 182zM220 -211q-88 0 -146.5 28.5t-58.5 81.5q0 16 5.5 29t17 22t20 14.5t24 11.5t19.5 7q18 5 18.5 7.5t-20.5 9.5
q-26 8 -42.5 28.5t-16.5 45.5q0 31 26 54t73 29q-90 46 -90 139q0 71 51 117.5t150 46.5q114 0 177 -66q1 28 16 45.5t44 17.5q23 0 39.5 -13t16.5 -41q0 -27 -17 -41t-41 -9q-16 3 -23 -4t-6 -20q0 -5 2 -18t2 -20q0 -67 -49 -113t-138 -46q-16 0 -37 2t-29 2
q-36 0 -36 -21q0 -12 14 -18.5t52 -13.5l101 -19q87 -16 132.5 -40t45.5 -72q0 -68 -88 -115.5t-208 -47.5zM267 174q50 0 50 92q0 37 -6 69t-24 57.5t-46 25.5q-50 0 -50 -92q0 -60 18 -106t58 -46zM272 -171q106 0 106 75q0 26 -19.5 36t-78.5 21q-5 0 -8 1l-27 5
q-46 8 -70 -11.5t-24 -47.5q0 -33 32 -56t89 -23z" />
    <glyph glyph-name="Hbar" unicode="&#x126;" horiz-adv-x="763" 
d="M733 581q-76 -8 -76 -67v-407q0 -58 76 -67v-40h-321v40q76 9 76 67v140q0 16 -14 24t-34 8h-117q-20 0 -34 -8t-14 -24v-140q0 -58 76 -67v-40h-321v40q76 9 76 67v407q0 59 -76 67v40h321v-40q-76 -8 -76 -67v-2q0 -32 49 -32h124q27 0 40 13v21q0 59 -76 67v40h321
v-40zM439 329q49 0 49 32v43q-13 12 -39 12h-126q-20 0 -34 -8t-14 -24v-23q0 -32 49 -32h115z" />
    <glyph glyph-name="hbar" unicode="&#x127;" horiz-adv-x="616" 
d="M544 102q0 -26 10.5 -39t31.5 -4v-22q-18 -43 -82 -43q-50 0 -80 28t-30 82v162q0 46 -22 77.5t-61 31.5q-40 0 -61.5 -31t-21.5 -78v-155q0 -40 13.5 -55t48.5 -17v-39h-276v39q36 2 50 17t14 55v378h-63v48h63q-1 31 -17 42t-46 8v39l163 27q50 7 50 -40v-76h145v-48
h-145v-63q0 -16 6 -24.5t14 -8t14 8.5q47 62 138 62q144 0 144 -175v-187z" />
    <glyph glyph-name="Imacron" unicode="&#x12a;" horiz-adv-x="381" 
d="M64 750q-23 0 -23 19v50q0 19 23 19h277q23 0 23 -19v-50q0 -19 -23 -19h-277zM30 0v40q76 9 76 67v407q0 59 -76 67v40h321v-40q-76 -8 -76 -67v-407q0 -58 76 -67v-40h-321z" />
    <glyph glyph-name="imacron" unicode="&#x12b;" 
d="M27 580q-23 0 -23 19v50q0 19 23 19h277q23 0 23 -19v-50q0 -19 -23 -19h-277zM24 0v39q36 2 50 17t14 55v229q0 33 -16 44t-47 8v39l163 27q50 7 50 -40v-307q0 -40 13.5 -55t48.5 -17v-39h-276z" />
    <glyph glyph-name="Iogonek" unicode="&#x12e;" horiz-adv-x="381" 
d="M351 581q-76 -8 -76 -67v-407q0 -58 76 -67v-40h-86q-100 -64 -100 -116q0 -25 15 -42.5t44 -17.5q49 0 62 56h55q-3 -17 -11 -35.5t-26.5 -41.5t-57 -38t-90.5 -15q-57 0 -97 25.5t-40 82.5q0 56 51.5 94t111.5 48h-152v40q76 9 76 67v407q0 59 -76 67v40h321v-40z" />
    <glyph glyph-name="iogonek" unicode="&#x12f;" 
d="M154 498q-36 0 -61.5 24.5t-25.5 59.5q0 37 25.5 62t61.5 25q35 0 60 -25t25 -62q0 -35 -25 -59.5t-60 -24.5zM213 0q-100 -64 -100 -116q0 -25 15 -42.5t44 -17.5q49 0 62 56h55q-3 -17 -11 -35.5t-26.5 -41.5t-57 -38t-90.5 -15q-57 0 -97 25.5t-40 82.5q0 56 51.5 94
t111.5 48h-106v39q36 2 50 17t14 55v229q0 33 -16 44t-47 8v39l163 27q50 7 50 -40v-307q0 -40 13.5 -55t48.5 -17v-39h-87z" />
    <glyph glyph-name="Idotaccent" unicode="&#x130;" horiz-adv-x="381" 
d="M191 668q-36 0 -61.5 24.5t-25.5 59.5q0 37 25.5 62t61.5 25q35 0 60 -25t25 -62q0 -35 -25 -59.5t-60 -24.5zM30 0v40q76 9 76 67v407q0 59 -76 67v40h321v-40q-76 -8 -76 -67v-407q0 -58 76 -67v-40h-321z" />
    <glyph glyph-name="dotlessi" unicode="&#x131;" 
d="M24 0v39q36 2 50 17t14 55v229q0 33 -16 44t-47 8v39l163 27q50 7 50 -40v-307q0 -40 13.5 -55t48.5 -17v-39h-276z" />
    <glyph glyph-name="IJ" unicode="&#x132;" horiz-adv-x="912" 
d="M30 0v40q76 9 76 67v407q0 59 -76 67v40h321v-40q-76 -8 -76 -67v-407q0 -58 76 -67v-40h-321zM580 -10q-82 0 -138 33t-56 93q0 42 24.5 64.5t61.5 22.5q38 0 55 -25.5t17 -59.5q0 -89 44 -89q48 0 48 86v399q0 60 -85 67v40h331v-40q-76 -8 -76 -67v-323
q0 -60 -21.5 -102t-57.5 -62t-71.5 -28.5t-75.5 -8.5z" />
    <glyph glyph-name="ij" unicode="&#x133;" horiz-adv-x="644" 
d="M151 498q-36 0 -61.5 24.5t-25.5 59.5q0 37 25.5 62t61.5 25t60.5 -25t24.5 -62q0 -35 -25 -59.5t-60 -24.5zM492 498q-37 0 -62 24.5t-25 59.5q0 37 25 62t62 25q35 0 60 -25t25 -62q0 -35 -25 -59.5t-60 -24.5zM24 0v39q36 2 50 17t14 55v229q0 33 -16 44t-47 8v39
l163 27q50 7 50 -40v-307q0 -40 13.5 -55t48.5 -17v-39h-276zM385 -202q-55 0 -97 21.5t-42 68.5q0 30 17 48t44 18q35 0 54 -17t21.5 -38t6.5 -38t14 -17q11 0 18 16t7 36v444q0 33 -16 44t-47 8v39l163 27q50 7 50 -40v-454q0 -80 -55.5 -123t-137.5 -43z" />
    <glyph glyph-name="uni0136" unicode="&#x136;" horiz-adv-x="775" 
d="M602 147q64 -93 148 -107v-40h-355v40q33 11 42 26.5t-10 50.5l-43 83q-12 18 -21 28.5t-19.5 17.5t-20.5 4.5t-20 -14.5q-13 -15 -19 -28t-7 -21.5t-2 -26.5v-53q0 -58 76 -67v-40h-321v40q76 9 76 67v407q0 59 -76 67v40h321v-40q-76 -8 -76 -67v-233l227 235
q22 23 9.5 41.5t-49.5 23.5v40h255v-40q-37 -5 -82.5 -25.5t-67.5 -43.5l-83 -85q-25 -25 -26.5 -44t18.5 -50zM397 -41q43 0 65.5 -29t22.5 -77q0 -107 -109 -183l-25 28q55 48 55 83q0 15 -18 15q-34 0 -55.5 22.5t-21.5 55.5q0 37 24 61t62 24z" />
    <glyph glyph-name="uni0137" unicode="&#x137;" horiz-adv-x="607" 
d="M14 0v39q36 2 50 17t14 55v424q0 33 -16 44t-47 8v39l163 27q50 7 50 -40v-317q0 -24 15 -33t29 4l99 83q11 9 12 23t-12.5 26t-39.5 14v38h238v-38q-36 -3 -64 -18.5t-66 -48.5l-60 -51l131 -197q34 -53 97 -59v-39h-290v39q16 2 22 12.5t4 21.5t-8 21l-42 74
q-18 27 -25 29q-5 0 -10 -4q-20 -18 -25 -27t-5 -34v-21q0 -40 13.5 -55t48.5 -17v-39h-276zM287 -330l-25 28q55 48 55 83q0 15 -18 15q-34 0 -55.5 22.5t-21.5 55.5q0 37 24 61t62 24q43 0 65.5 -29t22.5 -77q0 -107 -109 -183z" />
    <glyph glyph-name="Lacute" unicode="&#x139;" horiz-adv-x="628" 
d="M158 713q-18 18 2 42l90 112q61 74 109 24q52 -55 -40 -111l-123 -73q-19 -13 -38 6zM30 0v40q76 9 76 67v407q0 59 -76 67v40h321v-40q-76 -8 -76 -67v-407q0 -65 87 -59l57 3q50 2 77.5 17t49.5 50l24 39h38l-14 -59q-14 -56 -10 -98h-554z" />
    <glyph glyph-name="lacute" unicode="&#x13a;" horiz-adv-x="300" 
d="M103 713q-18 18 2 42l90 112q61 74 109 24q52 -55 -40 -111l-123 -73q-19 -13 -38 6zM183 -6q-49 0 -79.5 28t-30.5 82v431q0 33 -16 44t-47 8v39l163 27q50 7 50 -40v-511q0 -26 10.5 -39t31.5 -4v-22q-18 -43 -82 -43z" />
    <glyph glyph-name="uni013B" unicode="&#x13b;" horiz-adv-x="628" 
d="M30 0v40q76 9 76 67v407q0 59 -76 67v40h321v-40q-76 -8 -76 -67v-407q0 -65 87 -59l57 3q50 2 77.5 17t49.5 50l24 39h38l-14 -59q-14 -56 -10 -98h-554zM285 -330l-25 28q55 48 55 83q0 15 -18 15q-34 0 -55.5 22.5t-21.5 55.5q0 37 24 61t62 24q43 0 65.5 -29
t22.5 -77q0 -107 -109 -183z" />
    <glyph glyph-name="uni013C" unicode="&#x13c;" horiz-adv-x="300" 
d="M183 -6q-49 0 -79.5 28t-30.5 82v431q0 33 -16 44t-47 8v39l163 27q50 7 50 -40v-511q0 -26 10.5 -39t31.5 -4v-22q-18 -43 -82 -43zM138 -330l-25 28q55 48 55 83q0 15 -18 15q-34 0 -55.5 22.5t-21.5 55.5q0 37 24 61t62 24q43 0 65.5 -29t22.5 -77q0 -107 -109 -183z
" />
    <glyph glyph-name="Lcaron" unicode="&#x13d;" horiz-adv-x="628" 
d="M460 336l-26 27q56 49 56 84q0 15 -18 15q-35 0 -56.5 22t-21.5 56q0 37 24 60.5t62 23.5q43 0 66 -29t23 -77q0 -106 -109 -182zM30 0v40q76 9 76 67v407q0 59 -76 67v40h321v-40q-76 -8 -76 -67v-407q0 -65 87 -59l57 3q50 2 77.5 17t49.5 50l24 39h38l-14 -59
q-14 -56 -10 -98h-554z" />
    <glyph glyph-name="lcaron" unicode="&#x13e;" horiz-adv-x="357" 
d="M298 473q-36 0 -36 40v75q0 72 63 72q32 0 45 -22.5t1 -59.5l-24 -67q-7 -21 -18 -29.5t-31 -8.5zM183 -6q-49 0 -79.5 28t-30.5 82v431q0 33 -16 44t-47 8v39l163 27q50 7 50 -40v-511q0 -26 10.5 -39t31.5 -4v-22q-18 -43 -82 -43z" />
    <glyph glyph-name="Ldot" unicode="&#x13f;" horiz-adv-x="628" 
d="M30 0v40q76 9 76 67v407q0 59 -76 67v40h321v-40q-76 -8 -76 -67v-407q0 -65 87 -59l57 3q50 2 77.5 17t49.5 50l24 39h38l-14 -59q-14 -56 -10 -98h-554zM447 262q-32 0 -55 23t-23 56q0 32 23 55t55 23t55 -23t23 -55q0 -33 -23 -56t-55 -23z" />
    <glyph glyph-name="ldot" unicode="&#x140;" horiz-adv-x="405" 
d="M183 -6q-49 0 -79.5 28t-30.5 82v431q0 33 -16 44t-47 8v39l163 27q50 7 50 -40v-511q0 -26 10.5 -39t31.5 -4v-22q-18 -43 -82 -43zM356 279q-32 0 -55 23t-23 56q0 32 23 55t55 23t55.5 -23t23.5 -55q0 -33 -23.5 -56t-55.5 -23z" />
    <glyph glyph-name="Lslash" unicode="&#x141;" horiz-adv-x="623" 
d="M603 157l-14 -59q-14 -56 -10 -98h-554v40q76 9 76 67v131l-71 -38v51l71 38v225q0 59 -76 67v40h321v-40q-75 -8 -75 -67v-134l76 41v-51l-76 -41v-222q0 -33 20 -47.5t67 -11.5l56 3q50 2 77.5 17t50.5 50l24 39h37z" />
    <glyph glyph-name="lslash" unicode="&#x142;" horiz-adv-x="322" 
d="M287 360l-62 -36v-222q0 -26 10.5 -39t31.5 -4v-22q-18 -43 -82 -43q-50 0 -80 28t-30 82v134l-65 -38v51l65 38v246q0 33 -16 44t-47 8v39l162 27q51 7 51 -40v-238l62 36v-51z" />
    <glyph glyph-name="Nacute" unicode="&#x143;" horiz-adv-x="736" 
d="M329 713q-18 18 2 42l90 112q61 74 109 24q52 -55 -40 -111l-123 -73q-19 -13 -38 6zM30 0v40q81 10 81 67v407q0 29 -21.5 46t-59.5 21v40h191l339 -376v269q0 29 -22 46t-60 21v40h228v-40q-38 -4 -60 -21t-22 -46v-514h-62l-386 429v-322q0 -57 83 -67v-40h-229z" />
    <glyph glyph-name="nacute" unicode="&#x144;" horiz-adv-x="626" 
d="M275 543q-18 18 2 42l90 112q61 74 109 24q52 -55 -40 -111l-123 -73q-19 -13 -38 6zM514 -6q-50 0 -80 28t-30 82v162q0 46 -22.5 77.5t-60.5 31.5q-39 0 -61 -31.5t-22 -77.5v-155q0 -40 13.5 -55t48.5 -17v-39h-276v39q36 2 50 17t14 55v229q0 33 -16 44t-47 8v39
l163 27q50 7 50 -32q0 -16 6 -24.5t14 -8t14 8.5q56 62 140 62q142 0 142 -175v-187q0 -26 10.5 -38.5t31.5 -4.5v-22q-18 -43 -82 -43z" />
    <glyph glyph-name="uni0145" unicode="&#x145;" horiz-adv-x="743" 
d="M30 0v40q81 10 81 67v407q0 29 -21.5 46t-59.5 21v40h191l339 -376v269q0 29 -22 46t-60 21v40h228v-40q-38 -4 -60 -21t-22 -46v-514h-62l-386 429v-322q0 -57 83 -67v-40h-229zM394 -330l-26 28q55 48 55 83q0 15 -18 15q-34 0 -55.5 22.5t-21.5 55.5q0 37 24 61t62 24
q43 0 66 -29t23 -77q0 -105 -109 -183z" />
    <glyph glyph-name="uni0146" unicode="&#x146;" horiz-adv-x="626" 
d="M514 -6q-50 0 -80 28t-30 82v162q0 46 -22.5 77.5t-60.5 31.5q-39 0 -61 -31.5t-22 -77.5v-155q0 -40 13.5 -55t48.5 -17v-39h-276v39q36 2 50 17t14 55v229q0 33 -16 44t-47 8v39l163 27q50 7 50 -32q0 -16 6 -24.5t14 -8t14 8.5q56 62 140 62q142 0 142 -175v-187
q0 -26 10.5 -38.5t31.5 -4.5v-22q-18 -43 -82 -43zM293 -330l-25 28q55 48 55 83q0 15 -18 15q-34 0 -55.5 22.5t-21.5 55.5q0 37 24 61t62 24q43 0 65.5 -29t22.5 -77q0 -107 -109 -183z" />
    <glyph glyph-name="Ncaron" unicode="&#x147;" horiz-adv-x="736" 
d="M369 673l-161 180l29 28l132 -88l132 88l29 -28zM30 0v40q81 10 81 67v407q0 29 -21.5 46t-59.5 21v40h191l339 -376v269q0 29 -22 46t-60 21v40h228v-40q-38 -4 -60 -21t-22 -46v-514h-62l-386 429v-322q0 -57 83 -67v-40h-229z" />
    <glyph glyph-name="ncaron" unicode="&#x148;" horiz-adv-x="626" 
d="M315 503l-161 180l29 28l132 -88l132 88l29 -28zM514 -6q-50 0 -80 28t-30 82v162q0 46 -22.5 77.5t-60.5 31.5q-39 0 -61 -31.5t-22 -77.5v-155q0 -40 13.5 -55t48.5 -17v-39h-276v39q36 2 50 17t14 55v229q0 33 -16 44t-47 8v39l163 27q50 7 50 -32q0 -16 6 -24.5
t14 -8t14 8.5q56 62 140 62q142 0 142 -175v-187q0 -26 10.5 -38.5t31.5 -4.5v-22q-18 -43 -82 -43z" />
    <glyph glyph-name="Eng" unicode="&#x14a;" horiz-adv-x="736" 
d="M478 621h228v-40q-38 -4 -60 -21t-22 -46v-524q0 -59 -21.5 -101t-57.5 -62t-71.5 -28.5t-75.5 -8.5q-82 0 -138 33t-56 93q0 40 24 62t58 22q68 0 68 -82q0 -89 52 -89q25 0 36.5 19.5t11.5 66.5v205l-278 309v-322q0 -57 83 -67v-40h-229v40q81 10 81 67v407
q0 29 -21.5 46t-59.5 21v40h191l339 -376v269q0 29 -22 46t-60 21v40z" />
    <glyph glyph-name="eng" unicode="&#x14b;" horiz-adv-x="619" 
d="M361 -208q-56 0 -98 22t-42 69q0 30 17.5 48t44.5 18q35 0 54 -16t21.5 -34.5t6.5 -34.5t13 -16q12 0 19 16t7 36v348q0 116 -76 116q-43 0 -66.5 -30t-23.5 -86v-137q0 -36 14 -50.5t48 -16.5v-44h-276v44q36 2 50 16.5t14 50.5v224q0 33 -16 43.5t-47 7.5v45l163 27
q50 7 50 -32q0 -16 6 -24.5t14 -8t14 8.5q56 62 138 62q64 0 104 -39.5t40 -146.5v-319q0 -81 -56 -124t-137 -43z" />
    <glyph glyph-name="Omacron" unicode="&#x14c;" horiz-adv-x="729" 
d="M229 750q-23 0 -23 19v50q0 19 23 19h277q23 0 23 -19v-50q0 -19 -23 -19h-277zM362 -10q-86 0 -160 34.5t-123 109t-49 174.5q0 102 49 178.5t124.5 113.5t164.5 37q86 0 159.5 -34.5t122.5 -108t49 -172.5q0 -103 -49 -180.5t-124 -114.5t-164 -37zM391 42q52 0 89 54
t37 164q0 137 -52 231t-127 94q-52 0 -88.5 -53.5t-36.5 -162.5q0 -138 52 -232.5t126 -94.5z" />
    <glyph glyph-name="omacron" unicode="&#x14d;" horiz-adv-x="553" 
d="M151 580q-23 0 -23 19v50q0 19 23 19h277q23 0 23 -19v-50q0 -19 -23 -19h-277zM278 -6q-101 0 -174.5 61t-73.5 175q0 77 37 130.5t91 76.5t117 23q102 0 175 -61t73 -175q0 -113 -72.5 -171.5t-172.5 -58.5zM293 40q69 0 69 138q0 97 -29 167t-73 70q-69 0 -69 -139
q0 -97 29.5 -166.5t72.5 -69.5z" />
    <glyph glyph-name="Ohungarumlaut" unicode="&#x150;" horiz-adv-x="729" 
d="M146 713q-18 18 2 42l90 112q61 74 109 24q52 -55 -40 -111l-123 -73q-20 -12 -38 6zM379 713q-18 18 2 42l90 112q61 74 109 24q51 -55 -39 -111l-124 -73q-19 -13 -38 6zM362 -10q-86 0 -160 34.5t-123 109t-49 174.5q0 102 49 178.5t124.5 113.5t164.5 37
q86 0 159.5 -34.5t122.5 -108t49 -172.5q0 -103 -49 -180.5t-124 -114.5t-164 -37zM391 42q52 0 89 54t37 164q0 137 -52 231t-127 94q-52 0 -88.5 -53.5t-36.5 -162.5q0 -138 52 -232.5t126 -94.5z" />
    <glyph glyph-name="ohungarumlaut" unicode="&#x151;" horiz-adv-x="553" 
d="M136 543q-18 18 2 42l90 112q60 73 109 24q52 -55 -40 -111l-124 -73q-19 -13 -37 6zM369 543q-18 18 2 42l90 112q61 74 109 24q52 -55 -40 -111l-123 -73q-19 -13 -38 6zM278 -6q-101 0 -174.5 61t-73.5 175q0 77 37 130.5t91 76.5t117 23q102 0 175 -61t73 -175
q0 -113 -72.5 -171.5t-172.5 -58.5zM293 40q69 0 69 138q0 97 -29 167t-73 70q-69 0 -69 -139q0 -97 29.5 -166.5t72.5 -69.5z" />
    <glyph glyph-name="OE" unicode="&#x152;" horiz-adv-x="1038" 
d="M982 140h26q-21 -47 -30 -126q-2 -14 -16 -14h-520q-40 -10 -86 -10q-83 0 -155.5 35t-121.5 109t-49 174q0 152 101 240.5t243 88.5q49 0 102 -16h470q12 0 13 -10q7 -68 22 -133h-26q-27 49 -54 71t-70 22h-84q-64 0 -64 -65v-105q0 -62 64 -62h40q58 0 78 15.5
t26 58.5h22v-198h-22q-6 42 -26 57.5t-78 15.5h-40q-64 0 -64 -62v-113q0 -63 52 -65l108 1q44 1 69.5 14.5t45.5 41.5zM218 369q0 -137 50 -229t124 -92q80 0 121 86v275q-27 79 -73.5 124.5t-102.5 45.5q-50 0 -84.5 -51.5t-34.5 -158.5z" />
    <glyph glyph-name="oe" unicode="&#x153;" horiz-adv-x="857" 
d="M793 124l29 -27q-17 -36 -77 -69t-139 -33q-98 0 -164 50q-67 -51 -164 -51q-101 0 -174.5 61t-73.5 175q0 77 37 130.5t91 76.5t117 23q98 0 167 -54q71 55 173 55q82 0 137 -38.5t55 -102.5q0 -26 -11 -44.5t-24 -28t-42 -16.5t-45 -8.5t-53 -4.5l-79 -6
q-31 -2 -25 -42q6 -44 49.5 -70.5t96.5 -26.5q74 0 119 51zM293 40q68 0 69 132q-5 27 -5 52q0 15 1 22q-9 74 -36 121.5t-62 47.5q-69 0 -69 -139q0 -97 29.5 -166.5t72.5 -69.5zM601 415q-41 0 -61 -33t-21 -81q0 -27 7.5 -39t26.5 -11l36 4q50 5 67 19t17 45q0 40 -18 68
t-54 28z" />
    <glyph glyph-name="Racute" unicode="&#x154;" horiz-adv-x="724" 
d="M321 713q-18 18 2 42l90 112q61 74 109 24q52 -55 -40 -111l-123 -73q-19 -13 -38 6zM30 0v40q76 9 76 67v407q0 59 -76 67v40h366q113 0 182 -44t69 -126q0 -60 -42.5 -104t-122.5 -50q-5 0 -5 -6.5t5 -7.5q51 -14 79.5 -40t53.5 -92q2 -5 10 -24t13.5 -30.5t15.5 -26.5
t22.5 -22.5t27.5 -7.5v-40h-75q-63 0 -103 20.5t-63 55t-51 102.5q-21 48 -39 67.5t-49 19.5q-49 0 -49 -56v-102q0 -58 86 -67v-40h-331zM330 321h24q63 0 91 40.5t28 89.5q0 47 -24 83.5t-72 36.5h-56q-46 0 -46 -65v-127q0 -31 12.5 -44.5t42.5 -13.5z" />
    <glyph glyph-name="racute" unicode="&#x155;" horiz-adv-x="519" 
d="M239 543q-18 18 2 42l90 112q61 74 109 24q52 -55 -40 -111l-123 -73q-19 -13 -38 6zM24 0v39q36 2 50 17t14 55v229q0 33 -16 44t-47 8v39l163 27q50 7 50 -32v-15q0 -18 11 -19.5t21 12.5q51 60 121 60q45 0 79 -28t34 -73q0 -41 -21.5 -62.5t-57.5 -21.5q-30 0 -50 16
t-20 45q0 22 -10.5 34t-26.5 12q-34 0 -57 -39t-23 -110v-126q0 -40 14.5 -55t54.5 -17v-39h-283z" />
    <glyph glyph-name="uni0156" unicode="&#x156;" horiz-adv-x="724" 
d="M30 0v40q76 9 76 67v407q0 59 -76 67v40h366q113 0 182 -44t69 -126q0 -60 -42.5 -104t-122.5 -50q-5 0 -5 -6.5t5 -7.5q51 -14 79.5 -40t53.5 -92q2 -5 10 -24t13.5 -30.5t15.5 -26.5t22.5 -22.5t27.5 -7.5v-40h-75q-63 0 -103 20.5t-63 55t-51 102.5q-21 48 -39 67.5
t-49 19.5q-49 0 -49 -56v-102q0 -58 86 -67v-40h-331zM330 321h24q63 0 91 40.5t28 89.5q0 47 -24 83.5t-72 36.5h-56q-46 0 -46 -65v-127q0 -31 12.5 -44.5t42.5 -13.5zM405 -330l-25 28q55 48 55 83q0 15 -18 15q-34 0 -55.5 22.5t-21.5 55.5q0 37 24 61t62 24
q43 0 65.5 -29t22.5 -77q0 -107 -109 -183z" />
    <glyph glyph-name="uni0157" unicode="&#x157;" horiz-adv-x="519" 
d="M24 0v39q36 2 50 17t14 55v229q0 33 -16 44t-47 8v39l163 27q50 7 50 -32v-15q0 -18 11 -19.5t21 12.5q51 60 121 60q45 0 79 -28t34 -73q0 -41 -21.5 -62.5t-57.5 -21.5q-30 0 -50 16t-20 45q0 22 -10.5 34t-26.5 12q-34 0 -57 -39t-23 -110v-126q0 -40 14.5 -55
t54.5 -17v-39h-283zM166 -330l-26 28q56 47 56 83q0 15 -18 15q-34 0 -55.5 22.5t-21.5 55.5q0 37 23.5 61t62.5 24q42 0 65 -29t23 -77q0 -107 -109 -183z" />
    <glyph glyph-name="Rcaron" unicode="&#x158;" horiz-adv-x="724" 
d="M360 673l-161 180l29 28l132 -88l132 88l29 -28zM30 0v40q76 9 76 67v407q0 59 -76 67v40h366q113 0 182 -44t69 -126q0 -60 -42.5 -104t-122.5 -50q-5 0 -5 -6.5t5 -7.5q51 -14 79.5 -40t53.5 -92q2 -5 10 -24t13.5 -30.5t15.5 -26.5t22.5 -22.5t27.5 -7.5v-40h-75
q-63 0 -103 20.5t-63 55t-51 102.5q-21 48 -39 67.5t-49 19.5q-49 0 -49 -56v-102q0 -58 86 -67v-40h-331zM330 321h24q63 0 91 40.5t28 89.5q0 47 -24 83.5t-72 36.5h-56q-46 0 -46 -65v-127q0 -31 12.5 -44.5t42.5 -13.5z" />
    <glyph glyph-name="rcaron" unicode="&#x159;" horiz-adv-x="519" 
d="M272 503l-161 180l28 28l133 -88l132 88l29 -28zM24 0v39q36 2 50 17t14 55v229q0 33 -16 44t-47 8v39l163 27q50 7 50 -32v-15q0 -18 11 -19.5t21 12.5q51 60 121 60q45 0 79 -28t34 -73q0 -41 -21.5 -62.5t-57.5 -21.5q-30 0 -50 16t-20 45q0 22 -10.5 34t-26.5 12
q-34 0 -57 -39t-23 -110v-126q0 -40 14.5 -55t54.5 -17v-39h-283z" />
    <glyph glyph-name="Sacute" unicode="&#x15a;" horiz-adv-x="597" 
d="M239 713q-18 18 2 42l90 112q61 74 109 24q52 -55 -40 -111l-123 -73q-19 -13 -38 6zM301 -10q-67 0 -136 19t-103 42q-16 38 -21.5 76t5 65.5t37.5 27.5q11 0 15.5 -6t11.5 -23q26 -70 82 -108t118 -39q50 -1 72 20t22 52q0 48 -40.5 73.5t-119.5 48.5q-85 25 -142 78.5
t-57 133.5q0 90 69.5 138.5t172.5 48.5q60 0 127.5 -15.5t98.5 -37.5q16 -38 21.5 -76t-5 -65.5t-37.5 -27.5q-11 0 -15.5 6t-11.5 23q-25 68 -77.5 105t-107.5 37q-47 0 -69.5 -23t-22.5 -55q0 -43 34.5 -70t103.5 -47q38 -11 65 -20.5t62 -28t56.5 -40t37 -54t15.5 -72.5
q0 -52 -24 -90.5t-64.5 -58t-83 -28.5t-89.5 -9z" />
    <glyph glyph-name="sacute" unicode="&#x15b;" horiz-adv-x="471" 
d="M195 543q-18 18 2 42l90 112q61 74 109 24q52 -55 -40 -111l-123 -73q-19 -13 -38 6zM231 -6q-81 0 -141 32.5t-60 87.5q0 59 59 59q30 0 45 -15t15 -37q0 -39 28 -60.5t64 -21.5q35 0 50 20.5t15 44.5t-19.5 37.5t-71.5 28.5q-35 10 -61 21t-53.5 29t-42.5 44t-15 58
q0 65 55.5 101.5t136.5 36.5q43 0 82 -9.5t69 -35t30 -63.5q0 -48 -56 -48q-26 0 -39.5 11.5t-13.5 25.5q0 33 -20 53.5t-55 20.5q-28 0 -43 -14t-15 -34q0 -46 77 -67q2 -1 25 -7t28.5 -8.5t27 -9.5t29 -12t24 -14.5t23.5 -19t16.5 -22.5t13 -28.5t3.5 -33.5
q0 -75 -61.5 -113t-148.5 -38z" />
    <glyph glyph-name="Scedilla" unicode="&#x15e;" horiz-adv-x="597" 
d="M562 176q0 -47 -19.5 -82.5t-53 -56t-70.5 -31.5t-80 -15l-16 -34q43 -2 73.5 -28.5t30.5 -66.5q0 -52 -46 -80.5t-108 -28.5q-55 0 -92 25.5t-37 58.5q0 36 33.5 49.5t61.5 -17.5q0 -20 11.5 -44t34.5 -24q21 0 31.5 18.5t10.5 44.5q0 47 -32 47q-5 0 -19.5 -3.5
t-24.5 -3.5q-20 0 -29 13t-2 30l23 47q-55 7 -105 23t-76 34q-16 38 -21.5 76t5 65.5t37.5 27.5q11 0 15.5 -6t11.5 -23q26 -70 82 -108t118 -39q50 -1 72 20t22 52q0 48 -40.5 73.5t-119.5 48.5q-85 25 -142 78.5t-57 133.5q0 90 69.5 138.5t172.5 48.5q60 0 127.5 -15.5
t98.5 -37.5q16 -38 21.5 -76t-5 -65.5t-37.5 -27.5q-11 0 -15.5 6t-11.5 23q-25 68 -77.5 105t-107.5 37q-47 0 -69.5 -23t-22.5 -55q0 -43 34.5 -70t103.5 -47q38 -11 65 -20.5t62 -28t56.5 -40t37 -54t15.5 -72.5z" />
    <glyph glyph-name="scedilla" unicode="&#x15f;" horiz-adv-x="471" 
d="M441 145q0 -62 -43 -99t-111 -48l-19 -41q43 -2 73.5 -28.5t30.5 -66.5q0 -52 -46 -80.5t-108 -28.5q-55 0 -92 25.5t-37 58.5q0 36 33.5 49.5t61.5 -17.5q0 -20 11.5 -44t34.5 -24q21 0 31.5 18.5t10.5 44.5q0 47 -32 47q-5 0 -19.5 -3.5t-24.5 -3.5q-20 0 -29 13t-2 30
l24 49q-68 8 -113.5 39.5t-45.5 78.5q0 59 59 59q30 0 45 -15t15 -37q0 -39 28 -60.5t64 -21.5q35 0 50 20.5t15 44.5t-19.5 37.5t-71.5 28.5q-35 10 -61 21t-53.5 29t-42.5 44t-15 58q0 65 55.5 101.5t136.5 36.5q43 0 82 -9.5t69 -35t30 -63.5q0 -48 -56 -48
q-26 0 -39.5 11.5t-13.5 25.5q0 33 -20 53.5t-55 20.5q-28 0 -43 -14t-15 -34q0 -46 77 -67q2 -1 25 -7t28.5 -8.5t27 -9.5t29 -12t24 -14.5t23.5 -19t16.5 -22.5t13 -28.5t3.5 -33.5z" />
    <glyph glyph-name="Scaron" unicode="&#x160;" horiz-adv-x="597" 
d="M279 673l-161 180l29 28l132 -88l132 88l29 -28zM301 -10q-67 0 -136 19t-103 42q-16 38 -21.5 76t5 65.5t37.5 27.5q11 0 15.5 -6t11.5 -23q26 -70 82 -108t118 -39q50 -1 72 20t22 52q0 48 -40.5 73.5t-119.5 48.5q-85 25 -142 78.5t-57 133.5q0 90 69.5 138.5
t172.5 48.5q60 0 127.5 -15.5t98.5 -37.5q16 -38 21.5 -76t-5 -65.5t-37.5 -27.5q-11 0 -15.5 6t-11.5 23q-25 68 -77.5 105t-107.5 37q-47 0 -69.5 -23t-22.5 -55q0 -43 34.5 -70t103.5 -47q38 -11 65 -20.5t62 -28t56.5 -40t37 -54t15.5 -72.5q0 -52 -24 -90.5t-64.5 -58
t-83 -28.5t-89.5 -9z" />
    <glyph glyph-name="scaron" unicode="&#x161;" horiz-adv-x="471" 
d="M234 503l-161 180l29 28l132 -88l132 88l29 -28zM231 -6q-81 0 -141 32.5t-60 87.5q0 59 59 59q30 0 45 -15t15 -37q0 -39 28 -60.5t64 -21.5q35 0 50 20.5t15 44.5t-19.5 37.5t-71.5 28.5q-35 10 -61 21t-53.5 29t-42.5 44t-15 58q0 65 55.5 101.5t136.5 36.5
q43 0 82 -9.5t69 -35t30 -63.5q0 -48 -56 -48q-26 0 -39.5 11.5t-13.5 25.5q0 33 -20 53.5t-55 20.5q-28 0 -43 -14t-15 -34q0 -46 77 -67q2 -1 25 -7t28.5 -8.5t27 -9.5t29 -12t24 -14.5t23.5 -19t16.5 -22.5t13 -28.5t3.5 -33.5q0 -75 -61.5 -113t-148.5 -38z" />
    <glyph glyph-name="uni0162" unicode="&#x162;" horiz-adv-x="680" 
d="M635 601l20 -147h-41q-24 65 -48 89t-75 24q-42 0 -54 -11t-12 -55v-392q0 -32 24 -48.5t83 -20.5v-40h-140l-20 -43q43 -2 73.5 -28.5t30.5 -66.5q0 -52 -46 -80.5t-108 -28.5q-55 0 -92 25.5t-37 58.5q0 36 33.5 49.5t61.5 -17.5q0 -20 11.5 -44t34.5 -24
q21 0 31.5 18.5t10.5 44.5q0 47 -32 47q-5 0 -19.5 -3.5t-24.5 -3.5q-20 0 -29 13t-2 30l26 53h-148v40q59 4 83.5 20.5t24.5 48.5v392q0 44 -12.5 55t-54.5 11q-51 0 -75 -24t-47 -89h-41l20 147q2 25 25 22q22 -2 55 -2h430q33 0 55 2q23 3 25 -22z" />
    <glyph glyph-name="uni0163" unicode="&#x163;" horiz-adv-x="398" 
d="M303 402q-38 2 -50 -6.5t-12 -35.5v-212q0 -46 9.5 -69t36.5 -23q37 0 60 18l21 -29q-29 -35 -88 -46l-19 -42q43 -2 73.5 -28.5t30.5 -66.5q0 -52 -46 -80.5t-108 -28.5q-55 0 -92 25.5t-37 58.5q0 36 33.5 49.5t61.5 -17.5q0 -20 11.5 -44t34.5 -24q21 0 31.5 18.5
t10.5 44.5q0 47 -32 47q-5 0 -19.5 -3.5t-24.5 -3.5q-20 0 -29 13t-2 30l26 53h8q-101 24 -101 143v219q0 25 -6.5 33.5t-24.5 8.5h-45v32q59 13 94 40t63 72q10 17 28 17h18q24 0 24 -24l-1 -62q0 -17 12 -22.5t50 -5.5h65v-53z" />
    <glyph glyph-name="Tcaron" unicode="&#x164;" horiz-adv-x="680" 
d="M338 673l-161 180l29 28l132 -88l132 88l29 -28zM147 0v40q59 4 83.5 20.5t24.5 48.5v392q0 44 -12.5 55t-54.5 11q-51 0 -75 -24t-47 -89h-41l20 147q2 25 25 22q22 -2 55 -2h430q33 0 55 2q23 3 25 -22l20 -147h-41q-24 65 -48 89t-75 24q-42 0 -54 -11t-12 -55v-392
q0 -32 24 -48.5t83 -20.5v-40h-385z" />
    <glyph glyph-name="tcaron" unicode="&#x165;" horiz-adv-x="364" 
d="M296 483q-40 0 -37 40l3 75q1 72 70 72q35 0 53 -22.5t0 -59.5l-40 -67q-9 -22 -19 -30t-30 -8zM239 -5q-70 0 -109 38t-39 110v219q0 25 -6.5 33.5t-24.5 8.5h-45v32q59 13 94 40t63 72q10 17 28 17h18q24 0 24 -24l-1 -62q0 -17 12 -22.5t50 -5.5h65v-53l-65 4
q-38 2 -50 -6.5t-12 -35.5v-212q0 -46 9.5 -69t36.5 -23q37 0 60 18l21 -29q-42 -50 -129 -50z" />
    <glyph glyph-name="Tbar" unicode="&#x166;" horiz-adv-x="680" 
d="M635 601l20 -147h-41q-24 65 -48 89t-75 24q-42 0 -54 -11t-12 -55v-97h116v-44h-116v-251q0 -32 24 -48.5t83 -20.5v-40h-385v40q59 4 83.5 20.5t24.5 48.5v251h-113v44h113v97q0 44 -12.5 55t-54.5 11q-51 0 -75 -24t-47 -89h-41l20 147q2 25 25 22q22 -2 55 -2h430
q33 0 55 2q23 3 25 -22z" />
    <glyph glyph-name="tbar" unicode="&#x167;" horiz-adv-x="398" 
d="M303 402q-38 2 -50 -6.5t-12 -35.5v-29h114v-52h-114v-131q0 -46 9.5 -69t36.5 -23q37 0 60 18l21 -29q-42 -50 -129 -50q-70 0 -109 38t-39 110v136h-76v52h76v31q0 25 -6.5 33.5t-24.5 8.5h-45v32q59 13 94 40t63 72q10 17 28 17h18q24 0 24 -24l-1 -62q0 -17 12 -22.5
t50 -5.5h65v-53z" />
    <glyph glyph-name="Umacron" unicode="&#x16a;" horiz-adv-x="752" 
d="M266 750q-23 0 -23 19v50q0 19 23 19h277q23 0 23 -19v-50q0 -19 -23 -19h-277zM382 -10q-129 0 -205 70t-76 213v241q0 59 -76 67v40h321v-40q-76 -8 -76 -67v-230q0 -212 149 -212q71 0 113.5 51.5t42.5 154.5v236q0 29 -21 46t-59 21v40h232v-40q-38 -4 -59.5 -21
t-21.5 -46v-263q0 -120 -67 -190.5t-197 -70.5z" />
    <glyph glyph-name="umacron" unicode="&#x16b;" horiz-adv-x="631" 
d="M181 580q-23 0 -23 19v50q0 19 23 19h277q23 0 23 -19v-50q0 -19 -23 -19h-277zM234 -6q-66 0 -106 39.5t-40 146.5v159q0 32 -16 43t-47 10v39l163 27q50 7 50 -40v-214q0 -54 21.5 -87t61.5 -33t61.5 33t21.5 87v135q0 32 -16 43t-47 10v39l162 27q51 7 51 -40v-316
q0 -26 10.5 -39t31.5 -4v-22q-18 -43 -84 -43q-33 0 -55.5 13t-30.5 26t-11 28q-5 21 -18 21q-8 0 -17 -13q-55 -75 -146 -75z" />
    <glyph glyph-name="ubreve" unicode="&#x16d;" horiz-adv-x="631" 
d="M328 535q-63 0 -109 37t-46 108q0 11 10 11h39q6 0 10 -13q15 -53 96 -53t96 53q4 13 10 13h39q10 0 10 -11q0 -71 -46 -108t-109 -37zM234 -6q-66 0 -106 39.5t-40 146.5v159q0 32 -16 43t-47 10v39l163 27q50 7 50 -40v-214q0 -54 21.5 -87t61.5 -33t61.5 33t21.5 87
v135q0 32 -16 43t-47 10v39l162 27q51 7 51 -40v-316q0 -26 10.5 -39t31.5 -4v-22q-18 -43 -84 -43q-33 0 -55.5 13t-30.5 26t-11 28q-5 21 -18 21q-8 0 -17 -13q-55 -75 -146 -75z" />
    <glyph glyph-name="Uring" unicode="&#x16e;" horiz-adv-x="752" 
d="M329 702q-46 0 -79.5 30.5t-33.5 75.5q0 44 33.5 76t79.5 32q45 0 78.5 -32t33.5 -76t-33 -75t-79 -31zM329 768q19 0 29.5 11.5t10.5 28.5t-10.5 29.5t-29.5 12.5t-30 -12.5t-11 -29.5t11 -28.5t30 -11.5zM382 -10q-129 0 -205 70t-76 213v241q0 59 -76 67v40h321v-40
q-76 -8 -76 -67v-230q0 -212 149 -212q71 0 113.5 51.5t42.5 154.5v236q0 29 -21 46t-59 21v40h232v-40q-38 -4 -59.5 -21t-21.5 -46v-263q0 -120 -67 -190.5t-197 -70.5z" />
    <glyph glyph-name="uring" unicode="&#x16f;" horiz-adv-x="631" 
d="M285 532q-46 0 -79 30.5t-33 75.5q0 44 33 76t79 32t79 -32t33 -76q0 -45 -33 -75.5t-79 -30.5zM285 598q19 0 29.5 11.5t10.5 28.5t-10.5 29.5t-29.5 12.5t-29.5 -12.5t-10.5 -29.5t10.5 -28.5t29.5 -11.5zM234 -6q-66 0 -106 39.5t-40 146.5v159q0 32 -16 43t-47 10v39
l163 27q50 7 50 -40v-214q0 -54 21.5 -87t61.5 -33t61.5 33t21.5 87v135q0 32 -16 43t-47 10v39l162 27q51 7 51 -40v-316q0 -26 10.5 -39t31.5 -4v-22q-18 -43 -84 -43q-33 0 -55.5 13t-30.5 26t-11 28q-5 21 -18 21q-8 0 -17 -13q-55 -75 -146 -75z" />
    <glyph glyph-name="Uhungarumlaut" unicode="&#x170;" horiz-adv-x="752" 
d="M183 713q-18 18 2 42l90 112q61 74 109 24q52 -55 -40 -111l-123 -73q-20 -12 -38 6zM416 713q-18 18 2 42l90 112q61 74 109 24q51 -55 -39 -111l-124 -73q-19 -13 -38 6zM382 -10q-129 0 -205 70t-76 213v241q0 59 -76 67v40h321v-40q-76 -8 -76 -67v-230
q0 -212 149 -212q71 0 113.5 51.5t42.5 154.5v236q0 29 -21 46t-59 21v40h232v-40q-38 -4 -59.5 -21t-21.5 -46v-263q0 -120 -67 -190.5t-197 -70.5z" />
    <glyph glyph-name="uhungarumlaut" unicode="&#x171;" horiz-adv-x="631" 
d="M143 543q-18 18 2 42l90 112q61 74 109 24q51 -55 -39 -111l-124 -73q-19 -13 -38 6zM376 543q-17 18 2 42l91 112q60 73 108 24q53 -55 -39 -111l-124 -73q-19 -13 -38 6zM234 -6q-66 0 -106 39.5t-40 146.5v159q0 32 -16 43t-47 10v39l163 27q50 7 50 -40v-214
q0 -54 21.5 -87t61.5 -33t61.5 33t21.5 87v135q0 32 -16 43t-47 10v39l162 27q51 7 51 -40v-316q0 -26 10.5 -39t31.5 -4v-22q-18 -43 -84 -43q-33 0 -55.5 13t-30.5 26t-11 28q-5 21 -18 21q-8 0 -17 -13q-55 -75 -146 -75z" />
    <glyph glyph-name="Uogonek" unicode="&#x172;" horiz-adv-x="752" 
d="M495 621h232v-40q-38 -4 -59.5 -21t-21.5 -46v-263q0 -98 -44 -163.5t-131 -87.5q-101 -63 -101 -116q0 -25 15 -42.5t44 -17.5q49 0 62 56h55q-3 -17 -11 -35.5t-26.5 -41.5t-57 -38t-90.5 -15q-57 0 -97 25.5t-40 82.5q0 47 37.5 81.5t89.5 51.5q-116 8 -183 78
t-67 204v241q0 59 -76 67v40h321v-40q-76 -8 -76 -67v-230q0 -212 149 -212q71 0 113.5 51.5t42.5 154.5v236q0 29 -21 46t-59 21v40z" />
    <glyph glyph-name="uogonek" unicode="&#x173;" horiz-adv-x="631" 
d="M554 102q0 -26 10.5 -39t31.5 -4v-22q-14 -35 -63 -42h-2q-7 -1 -19 -1h-7q-94 -6 -94 -85q0 -29 14.5 -47.5t41.5 -18.5q11 0 19.5 3t13 5t8.5 10.5t5 11t3 15t3 14.5h54q-2 -16 -5 -27.5t-15 -33.5t-29.5 -36t-52 -25t-79.5 -11q-53 0 -90 27t-37 82q0 64 50 97.5
t123 43.5q-19 19 -23 42q-5 21 -18 21q-8 0 -17 -13q-55 -75 -146 -75q-66 0 -106 39.5t-40 146.5v159q0 32 -16 43t-47 10v39l163 27q50 7 50 -40v-214q0 -54 21.5 -87t61.5 -33t61.5 33t21.5 87v135q0 32 -16 43t-47 10v39l162 27q51 7 51 -40v-316z" />
    <glyph glyph-name="Wcircumflex" unicode="&#x174;" horiz-adv-x="1059" 
d="M531 921l161 -180l-29 -28l-132 89l-132 -89l-29 28zM305 0l-191 448q-4 9 -11.5 28t-10 25t-9 20t-10 19t-10 13.5t-12 12.5t-14 8t-17.5 7v40h294v-40q-75 -10 -42 -90l106 -253q10 -24 20 0l39 103q4 11 16.5 37t16 38t4 34t-9.5 45q-17 40 -32 59t-43 27v40h294v-40
q-75 -10 -42 -90l107 -253q10 -24 20 0l94 246q33 82 -70 97v40h247v-40q-43 -8 -66 -34.5t-43 -75.5l-139 -355q-30 -79 -30 -116h-86l-156 364l-97 -248q-31 -78 -31 -116h-86z" />
    <glyph glyph-name="wcircumflex" unicode="&#x175;" horiz-adv-x="852" 
d="M353 751l161 -180l-28 -28l-133 89l-132 -89l-28 28zM201 0l-109 327q-19 64 -82 86v38h262v-38q-36 -10 -40.5 -29.5t8.5 -56.5l53 -176q6 -21 14.5 -28t17 0t14.5 28l27 98q0 2 3.5 18.5t5 26.5t3 29t-2.5 27q-12 47 -57 63v38h262v-38q-36 -10 -40.5 -29.5t8.5 -56.5
l53 -176q6 -21 14.5 -28t17 0t14.5 28l23 85q27 103 20 134t-56 43v38h208v-38q-45 -11 -65 -30t-31 -56l-109 -327h-128l-89 270l-91 -270h-128z" />
    <glyph glyph-name="Ycircumflex" unicode="&#x176;" horiz-adv-x="697" 
d="M386 921l161 -180l-29 -28l-132 89l-132 -89l-29 28zM171 0v40q95 8 95 67v109q0 56 -21 85l-113 170q-29 44 -40 59.5t-32.5 32.5t-44.5 18v40h313v-40q-35 -3 -44.5 -22.5t15.5 -64.5l95 -147q7 -14 14 0l104 152q20 24 9 51.5t-56 30.5v40h217v-40q-9 -1 -17.5 -4.5
t-15 -7t-15 -11t-12.5 -11.5t-12.5 -15t-10.5 -14t-10.5 -15t-9.5 -13l-122 -183q-21 -31 -21 -91v-109q0 -59 96 -67v-40h-361z" />
    <glyph glyph-name="ycircumflex" unicode="&#x177;" horiz-adv-x="574" 
d="M286 751l161 -180l-29 -28l-132 89l-132 -89l-29 28zM161 -198q-54 0 -89 23.5t-35 61.5q0 26 16 45.5t50 19.5q29 0 43.5 -16.5t16.5 -36t10 -36t25 -16.5q28 0 35 26q16 44 -10 113l-131 341q-13 36 -31.5 55.5t-50.5 30.5v38h264v-38q-37 -11 -42.5 -30t10.5 -56
l68 -173q9 -23 16.5 -30t15 0.5t15.5 30.5l30 81q33 101 25.5 133t-57.5 44v38h209v-38q-44 -11 -61.5 -28.5t-33.5 -57.5l-141 -373q-33 -86 -70.5 -119t-96.5 -33z" />
    <glyph glyph-name="Ydieresis" unicode="&#x178;" horiz-adv-x="697" 
d="M268 668q-37 0 -62 24.5t-25 59.5q0 37 25 62t62 25q35 0 60 -25t25 -62q0 -35 -25 -59.5t-60 -24.5zM506 668q-36 0 -61.5 24.5t-25.5 59.5q0 37 25.5 62t61.5 25t60.5 -25t24.5 -62q0 -35 -25 -59.5t-60 -24.5zM171 0v40q95 8 95 67v109q0 56 -21 85l-113 170
q-29 44 -40 59.5t-32.5 32.5t-44.5 18v40h313v-40q-35 -3 -44.5 -22.5t15.5 -64.5l95 -147q7 -14 14 0l104 152q20 24 9 51.5t-56 30.5v40h217v-40q-9 -1 -17.5 -4.5t-15 -7t-15 -11t-12.5 -11.5t-12.5 -15t-10.5 -14t-10.5 -15t-9.5 -13l-122 -183q-21 -31 -21 -91v-109
q0 -59 96 -67v-40h-361z" />
    <glyph glyph-name="Zacute" unicode="&#x179;" horiz-adv-x="633" 
d="M288 713q-18 18 2 42l90 112q61 74 109 24q52 -55 -40 -111l-123 -73q-19 -13 -38 6zM15 0l363 553q6 9 2.5 14t-13.5 5l-146 -1q-49 0 -78 -25.5t-62 -84.5h-39l41 160h525l-362 -553q-12 -19 11 -19h163q15 0 27.5 1t23.5 5.5t18 6.5t16 12.5t13 13.5t13 18.5t11.5 20
t13.5 26t14 27.5h38l-47 -180h-546z" />
    <glyph glyph-name="zacute" unicode="&#x17a;" horiz-adv-x="474" 
d="M197 543q-18 18 2 42l90 112q61 74 109 24q52 -55 -40 -111l-123 -73q-19 -13 -38 6zM15 0l242 381q5 8 1.5 14.5t-12.5 6.5h-62q-50 0 -74 -23t-34 -65h-39l18 137h404l-242 -381q-5 -8 -1.5 -14.5t12.5 -6.5h74q90 0 108 88h39l-18 -137h-416z" />
    <glyph glyph-name="Zdotaccent" unicode="&#x17b;" horiz-adv-x="633" 
d="M328 668q-36 0 -61.5 24.5t-25.5 59.5q0 37 25.5 62t61.5 25q35 0 60 -25t25 -62q0 -35 -25 -59.5t-60 -24.5zM15 0l363 553q6 9 2.5 14t-13.5 5l-146 -1q-49 0 -78 -25.5t-62 -84.5h-39l41 160h525l-362 -553q-12 -19 11 -19h163q15 0 27.5 1t23.5 5.5t18 6.5t16 12.5
t13 13.5t13 18.5t11.5 20t13.5 26t14 27.5h38l-47 -180h-546z" />
    <glyph glyph-name="zdotaccent" unicode="&#x17c;" horiz-adv-x="474" 
d="M237 498q-36 0 -61.5 24.5t-25.5 59.5q0 37 25.5 62t61.5 25q35 0 60 -25t25 -62q0 -35 -25 -59.5t-60 -24.5zM15 0l242 381q5 8 1.5 14.5t-12.5 6.5h-62q-50 0 -74 -23t-34 -65h-39l18 137h404l-242 -381q-5 -8 -1.5 -14.5t12.5 -6.5h74q90 0 108 88h39l-18 -137h-416z
" />
    <glyph glyph-name="Zcaron" unicode="&#x17d;" horiz-adv-x="633" 
d="M328 673l-161 180l29 28l132 -88l132 88l29 -28zM15 0l363 553q6 9 2.5 14t-13.5 5l-146 -1q-49 0 -78 -25.5t-62 -84.5h-39l41 160h525l-362 -553q-12 -19 11 -19h163q15 0 27.5 1t23.5 5.5t18 6.5t16 12.5t13 13.5t13 18.5t11.5 20t13.5 26t14 27.5h38l-47 -180h-546z
" />
    <glyph glyph-name="zcaron" unicode="&#x17e;" horiz-adv-x="474" 
d="M237 503l-161 180l29 28l132 -88l132 88l29 -28zM15 0l242 381q5 8 1.5 14.5t-12.5 6.5h-62q-50 0 -74 -23t-34 -65h-39l18 137h404l-242 -381q-5 -8 -1.5 -14.5t12.5 -6.5h74q90 0 108 88h39l-18 -137h-416z" />
    <glyph glyph-name="florin" unicode="&#x192;" horiz-adv-x="503" 
d="M80 -217q-67 0 -118.5 29t-51.5 79q0 29 18.5 49t52.5 20q36 0 52.5 -20.5t18 -44.5t11 -44.5t32.5 -20.5q42 0 42 94v444q0 18 -6.5 25t-24.5 7h-40v36q71 -4 71 43v-3q0 91 59.5 143.5t147.5 52.5q67 0 118 -29t51 -79q0 -29 -18.5 -49t-52.5 -20q-36 0 -52.5 20.5
t-17.5 44.5t-10.5 44.5t-32.5 20.5q-42 0 -42 -94v-52q0 -28 32 -28h94v-51h-94q-17 0 -24.5 -6.5t-7.5 -25.5v-389q0 -91 -59.5 -143.5t-147.5 -52.5z" />
    <glyph glyph-name="uni0218" unicode="&#x218;" horiz-adv-x="584" 
d="M301 -10q-67 0 -136 19t-103 42q-16 38 -21.5 76t5 65.5t37.5 27.5q11 0 15.5 -6t11.5 -23q26 -70 82 -108t118 -39q50 -1 72 20t22 52q0 48 -40.5 73.5t-119.5 48.5q-85 25 -142 78.5t-57 133.5q0 90 69.5 138.5t172.5 48.5q60 0 127.5 -15.5t98.5 -37.5
q16 -38 21.5 -76t-5 -65.5t-37.5 -27.5q-11 0 -15.5 6t-11.5 23q-25 68 -77.5 105t-107.5 37q-47 0 -69.5 -23t-22.5 -55q0 -43 34.5 -70t103.5 -47q38 -11 65 -20.5t62 -28t56.5 -40t37 -54t15.5 -72.5q0 -52 -24 -90.5t-64.5 -58t-83 -28.5t-89.5 -9zM296 -330l-26 28
q56 47 56 83q0 15 -18 15q-34 0 -55.5 22.5t-21.5 55.5q0 37 23.5 61t62.5 24q42 0 65 -29t23 -77q0 -107 -109 -183z" />
    <glyph glyph-name="uni0219" unicode="&#x219;" horiz-adv-x="471" 
d="M231 -6q-81 0 -141 32.5t-60 87.5q0 59 59 59q30 0 45 -15t15 -37q0 -39 28 -60.5t64 -21.5q35 0 50 20.5t15 44.5t-19.5 37.5t-71.5 28.5q-35 10 -61 21t-53.5 29t-42.5 44t-15 58q0 65 55.5 101.5t136.5 36.5q43 0 82 -9.5t69 -35t30 -63.5q0 -48 -56 -48
q-26 0 -39.5 11.5t-13.5 25.5q0 33 -20 53.5t-55 20.5q-28 0 -43 -14t-15 -34q0 -46 77 -67q2 -1 25 -7t28.5 -8.5t27 -9.5t29 -12t24 -14.5t23.5 -19t16.5 -22.5t13 -28.5t3.5 -33.5q0 -75 -61.5 -113t-148.5 -38zM212 -330l-25 28q55 48 55 83q0 15 -18 15
q-34 0 -55.5 22.5t-21.5 55.5q0 37 24 61t62 24q43 0 65.5 -29t22.5 -77q0 -107 -109 -183z" />
    <glyph glyph-name="uni021A" unicode="&#x21a;" horiz-adv-x="680" 
d="M147 0v40q59 4 83.5 20.5t24.5 48.5v392q0 44 -12.5 55t-54.5 11q-51 0 -75 -24t-47 -89h-41l20 147q2 25 25 22q22 -2 55 -2h430q33 0 55 2q23 3 25 -22l20 -147h-41q-24 65 -48 89t-75 24q-42 0 -54 -11t-12 -55v-392q0 -32 24 -48.5t83 -20.5v-40h-385zM359 -330
l-26 28q56 47 56 83q0 15 -18 15q-35 0 -56.5 22.5t-21.5 55.5q0 37 24 61t63 24q42 0 65 -29t23 -77q0 -107 -109 -183z" />
    <glyph glyph-name="uni021B" unicode="&#x21b;" horiz-adv-x="398" 
d="M239 -5q-70 0 -109 38t-39 110v219q0 25 -6.5 33.5t-24.5 8.5h-45v32q59 13 94 40t63 72q10 17 28 17h18q24 0 24 -24l-1 -62q0 -17 12 -22.5t50 -5.5h65v-53l-65 4q-38 2 -50 -6.5t-12 -35.5v-212q0 -46 9.5 -69t36.5 -23q37 0 60 18l21 -29q-42 -50 -129 -50zM205 -330
l-25 28q55 48 55 83q0 15 -18 15q-34 0 -55.5 22.5t-21.5 55.5q0 37 24 61t62 24q43 0 65.5 -29t22.5 -77q0 -107 -109 -183z" />
    <glyph glyph-name="uni0237" unicode="&#x237;" horiz-adv-x="318" 
d="M60 -202q-55 0 -97 21.5t-42 68.5q0 30 17 48t44 18q35 0 54 -17t21.5 -38t6.5 -38t14 -17q11 0 18 16t7 36v444q0 33 -16 44t-47 8v39l163 27q50 7 50 -40v-454q0 -80 -55.5 -123t-137.5 -43z" />
    <glyph glyph-name="circumflex" unicode="&#x2c6;" horiz-adv-x="352" 
d="M176 751l161 -180l-29 -28l-132 89l-132 -89l-29 28z" />
    <glyph glyph-name="caron" unicode="&#x2c7;" horiz-adv-x="352" 
d="M176 503l-161 180l29 28l132 -88l132 88l29 -28z" />
    <glyph glyph-name="breve" unicode="&#x2d8;" horiz-adv-x="411" 
d="M205 535q-63 0 -109 37t-46 108q0 11 10 11h39q6 0 10 -13q15 -53 96 -53q82 0 97 53q3 13 10 13h39q10 0 10 -11q0 -71 -46.5 -108t-109.5 -37z" />
    <glyph glyph-name="dotaccent" unicode="&#x2d9;" horiz-adv-x="272" 
d="M137 498q-36 0 -61.5 24.5t-25.5 59.5q0 37 25.5 62t61.5 25q35 0 60 -25t25 -62q0 -35 -25 -59.5t-60 -24.5z" />
    <glyph glyph-name="ring" unicode="&#x2da;" 
d="M162 532q-46 0 -79 31t-33 75t33.5 76t78.5 32q46 0 79.5 -32t33.5 -76q0 -45 -33.5 -75.5t-79.5 -30.5zM162 598q19 0 30 11.5t11 28.5t-11 29.5t-30 12.5t-29.5 -12.5t-10.5 -29.5t10.5 -28.5t29.5 -11.5z" />
    <glyph glyph-name="ogonek" unicode="&#x2db;" horiz-adv-x="400" 
d="M175 -225q-57 0 -97 25.5t-40 82.5q0 58 54.5 96.5t115.5 46.5h78q-102 -64 -102 -117q0 -25 15 -42.5t44 -17.5q49 0 62 56h55q-3 -17 -11 -35.5t-26.5 -41.5t-57 -38t-90.5 -15z" />
    <glyph glyph-name="tilde" unicode="&#x2dc;" horiz-adv-x="517" 
d="M345 526q-46 0 -113 35.5t-92 35.5q-21 0 -35.5 -12t-14.5 -34h-40q0 61 32 94.5t90 33.5q47 0 114 -36t91 -36q51 0 51 46h39q0 -61 -31 -94t-91 -33z" />
    <glyph glyph-name="hungarumlaut" unicode="&#x2dd;" horiz-adv-x="555" 
d="M62 543q-18 18 2 42l90 112q60 73 109 24q52 -55 -40 -111l-124 -73q-19 -13 -37 6zM295 543q-18 18 2 42l90 112q61 74 109 24q52 -55 -40 -111l-123 -73q-19 -13 -38 6z" />
    <glyph glyph-name="acutecomb" unicode="&#x301;" horiz-adv-x="0" 
d="M-270 543q-18 18 2 42l90 112q61 74 109 24q52 -55 -40 -111l-123 -73q-19 -13 -38 6z" />
    <glyph glyph-name="uni0326" unicode="&#x326;" horiz-adv-x="0" 
d="M-159 -330l-25 28q55 48 55 83q0 15 -18 15q-34 0 -55.5 22.5t-21.5 55.5q0 37 24 61t62 24q43 0 65.5 -29t22.5 -77q0 -107 -109 -183z" />
    <glyph glyph-name="uni0394" unicode="&#x394;" horiz-adv-x="682" 
d="M20 0l301 634l341 -634h-642zM135 116h338l-176 316z" />
    <glyph glyph-name="uni03A9" unicode="&#x3a9;" horiz-adv-x="810" 
d="M678 136h92l-43 -113q-9 -23 -30 -23h-237v183q55 5 87 50t32 120q0 98 -44 148.5t-130 50.5q-173 0 -173 -199q0 -75 32 -120t88 -50v-183h-239q-21 0 -30 23l-43 113h92l17 -27q6 -10 13.5 -14t14 -4.5t19.5 0.5t22 0l42 -3h3q-90 29 -143.5 95.5t-53.5 159.5
q0 119 93.5 206.5t245.5 87.5t245.5 -87.5t93.5 -206.5q0 -88 -54.5 -157t-143.5 -98h4l52 3q6 1 16.5 0t16 -0.5t13 5t13.5 13.5z" />
    <glyph glyph-name="uni03BC" unicode="&#x3bc;" horiz-adv-x="631" 
d="M554 102q0 -26 10.5 -39t31.5 -4v-22q-18 -43 -84 -43q-33 0 -55.5 13t-30.5 26t-11 28q-5 21 -18 21q-8 0 -17 -13q-55 -75 -146 -75q-35 0 -59 9q7 -45 26.5 -73.5t33.5 -41t13 -21.5q-5 -40 -55 -60q-50 -19 -83 4q-22 14 -22 44v316v9v159q0 32 -16 43t-47 10v39
l163 27q50 7 50 -40v-214q0 -54 21.5 -87t61.5 -33t61.5 33t21.5 87v135q0 32 -16 43t-47 10v39l162 27q51 7 51 -40v-316z" />
    <glyph glyph-name="pi" unicode="&#x3c0;" horiz-adv-x="754" 
d="M663 138q53 -19 29 -97q-10 -37 -70.5 -47.5t-111.5 8.5q-41 14 -67 46.5t-26 81.5v215h-93v-229q0 -54 -42 -88t-86 -34q-60 0 -88 10l-13 75q40 -9 71.5 14t31.5 69v183h-35q-80 0 -60 -81l-36 52q-12 33 -12 58q0 35 26 56t75 21h487v-106h-73q-15 0 -21.5 -7
t-6.5 -24v-188q0 -48 24 -58q8 -3 12.5 2.5t10 19.5t10.5 21q25 40 64 27z" />
    <glyph glyph-name="uni0400" unicode="&#x400;" horiz-adv-x="630" 
d="M380 713q-19 -19 -38 -6l-124 73q-92 56 -39 111q48 49 108 -24l91 -112q19 -24 2 -42zM30 0v40q76 9 76 67v407q0 59 -76 67v40h508q13 0 14 -10q7 -68 21 -133h-25q-28 49 -55 71t-69 22h-85q-64 0 -64 -65v-105q0 -62 64 -62h40q58 0 78 15.5t26 58.5h22v-198h-22
q-6 42 -26 57.5t-78 15.5h-40q-64 0 -64 -62v-113q0 -63 53 -65l108 1q43 1 68.5 14.5t46.5 41.5l24 35h25q-21 -47 -30 -126q-2 -14 -16 -14h-524z" />
    <glyph glyph-name="uni0401" unicode="&#x401;" horiz-adv-x="630" 
d="M207 668q-36 0 -61.5 24.5t-25.5 59.5q0 37 25.5 62t61.5 25q35 0 60 -25t25 -62q0 -35 -25 -59.5t-60 -24.5zM445 668q-36 0 -61.5 24.5t-25.5 59.5q0 37 25.5 62t61.5 25t60.5 -25t24.5 -62q0 -35 -25 -59.5t-60 -24.5zM30 0v40q76 9 76 67v407q0 59 -76 67v40h508
q13 0 14 -10q7 -68 21 -133h-25q-28 49 -55 71t-69 22h-85q-64 0 -64 -65v-105q0 -62 64 -62h40q58 0 78 15.5t26 58.5h22v-198h-22q-6 42 -26 57.5t-78 15.5h-40q-64 0 -64 -62v-113q0 -63 53 -65l108 1q43 1 68.5 14.5t46.5 41.5l24 35h25q-21 -47 -30 -126
q-2 -14 -16 -14h-524z" />
    <glyph glyph-name="uni0403" unicode="&#x403;" horiz-adv-x="601" 
d="M296 713q-18 18 2 42l90 112q61 74 109 24q52 -55 -40 -111l-123 -73q-19 -13 -38 6zM30 0v42q76 8 76 67v403q0 59 -76 67v42h515l31 -156h-42q-52 107 -116 107h-67q-40 0 -58 -12t-18 -48v-403q0 -60 86 -67v-42h-331z" />
    <glyph glyph-name="uni0404" unicode="&#x404;" horiz-adv-x="674" 
d="M456 82q90 0 153 70l30 -25q-27 -50 -94 -93.5t-171 -43.5q-143 0 -243.5 87.5t-100.5 237.5q0 148 100 235t252 87q119 0 190 -52.5t71 -122.5q0 -38 -23 -65t-69 -27q-44 0 -67 25.5t-25 63.5q-3 60 -29.5 98.5t-80.5 38.5q-65 0 -99.5 -58.5t-32.5 -158.5v-18
q8 -21 39 -21h174v-65h-165q-26 0 -31 -14q27 -87 88.5 -133t133.5 -46z" />
    <glyph glyph-name="uni0405" unicode="&#x405;" horiz-adv-x="597" 
d="M301 -10q-67 0 -136 19t-103 42q-16 38 -21.5 76t5 65.5t37.5 27.5q11 0 15.5 -6t11.5 -23q26 -70 82 -108t118 -39q50 -1 72 20t22 52q0 48 -40.5 73.5t-119.5 48.5q-85 25 -142 78.5t-57 133.5q0 90 69.5 138.5t172.5 48.5q60 0 127.5 -15.5t98.5 -37.5
q16 -38 21.5 -76t-5 -65.5t-37.5 -27.5q-11 0 -15.5 6t-11.5 23q-25 68 -77.5 105t-107.5 37q-47 0 -69.5 -23t-22.5 -55q0 -43 34.5 -70t103.5 -47q38 -11 65 -20.5t62 -28t56.5 -40t37 -54t15.5 -72.5q0 -52 -24 -90.5t-64.5 -58t-83 -28.5t-89.5 -9z" />
    <glyph glyph-name="uni0406" unicode="&#x406;" horiz-adv-x="381" 
d="M30 0v40q76 9 76 67v407q0 59 -76 67v40h321v-40q-76 -8 -76 -67v-407q0 -58 76 -67v-40h-321z" />
    <glyph glyph-name="uni0407" unicode="&#x407;" horiz-adv-x="381" 
d="M73 668q-36 0 -61.5 24.5t-25.5 59.5q0 37 25.5 62t61.5 25q35 0 60 -25t25 -62q0 -35 -25 -59.5t-60 -24.5zM311 668q-36 0 -61.5 24.5t-25.5 59.5q0 37 25.5 62t61.5 25t60.5 -25t24.5 -62q0 -35 -25 -59.5t-60 -24.5zM30 0v40q76 9 76 67v407q0 59 -76 67v40h321v-40
q-76 -8 -76 -67v-407q0 -58 76 -67v-40h-321z" />
    <glyph glyph-name="uni0408" unicode="&#x408;" horiz-adv-x="506" 
d="M174 -10q-82 0 -138 33t-56 93q0 42 24.5 64.5t61.5 22.5q38 0 55 -25.5t17 -59.5q0 -89 44 -89q48 0 48 86v399q0 60 -85 67v40h331v-40q-76 -8 -76 -67v-323q0 -60 -21.5 -102t-57.5 -62t-71.5 -28.5t-75.5 -8.5z" />
    <glyph glyph-name="uni040D" unicode="&#x40d;" horiz-adv-x="777" 
d="M299 780q-92 56 -39 111q48 49 108 -24l91 -112q19 -24 2 -42q-19 -19 -38 -6zM747 581q-76 -8 -76 -67v-407q0 -58 76 -67v-40h-321v40q76 9 76 67v289l-227 -274v-15q0 -58 76 -67v-40h-321v40q76 9 76 67v407q0 59 -76 67v40h321v-40q-76 -8 -76 -67v-318l227 275v43
q0 59 -76 67v40h321v-40z" />
    <glyph glyph-name="uni040E" unicode="&#x40e;" horiz-adv-x="679" 
d="M362 705q-63 0 -109 37t-46 108q0 11 10 11h39q6 0 10 -13q15 -53 96 -53q82 0 97 53q3 13 10 13h39q10 0 10 -11q0 -71 -46.5 -108t-109.5 -37zM441 621h223v-42q-10 -1 -18 -4t-16 -10t-12.5 -10.5t-12 -15t-9 -14.5t-9.5 -18t-9 -16l-170 -327q-49 -94 -99.5 -136.5
t-119.5 -42.5q-63 0 -104 30.5t-41 75.5q0 30 19.5 47t49.5 17t43 -16.5t14 -35.5t10.5 -35.5t31.5 -16.5q12 0 20 1.5t28.5 16.5t41.5 45l-185 352q-6 12 -16 31.5t-14.5 28t-12.5 20.5t-15.5 17.5t-18.5 10t-25 5.5v42h310v-42q-35 -7 -44 -34t15 -75l99 -190l109 211
q15 28 -7.5 54t-55.5 34v42z" />
    <glyph glyph-name="uni0410" unicode="&#x410;" horiz-adv-x="734" 
d="M20 0v40q43 10 64.5 35t43.5 75l160 355q29 64 29 116l88 8l212 -456q6 -13 16 -35t14 -31t12.5 -23.5t15 -21t16.5 -13t23 -10.5v-39h-298v40q75 13 38 90l-7 12q-7 21 -52 21h-144q-43 0 -57 -30l3 4q-34 -79 69 -97v-40h-246zM256 215h132q8 0 12 6t0 19l-71 151
q-5 13 -9 13t-9 -12l-71 -159q-2 -8 3.5 -13t12.5 -5z" />
    <glyph glyph-name="uni0411" unicode="&#x411;" horiz-adv-x="683" 
d="M643 200q0 -92 -71.5 -145.5t-210.5 -54.5h-331v42q76 8 76 67v403q0 59 -76 67v42h515l31 -156h-42q-52 107 -116 107h-67q-40 0 -58 -12t-18 -48v-53q0 -28 12.5 -40.5t42.5 -12.5h22q143 0 217 -55.5t74 -150.5zM352 64q69 0 98 36t29 102q0 140 -127 140h-22
q-30 0 -42.5 -12.5t-12.5 -40.5v-174q0 -51 48 -51h29z" />
    <glyph glyph-name="uni0412" unicode="&#x412;" horiz-adv-x="708" 
d="M30 0v40q76 9 76 67v406q0 60 -76 68v40h309q293 0 293 -148q0 -108 -147 -131q183 -26 183 -163q0 -85 -67.5 -132t-175.5 -47q-21 0 -98.5 5.5t-155 5.5t-141.5 -11zM339 363h26q47 0 67 29.5t20 70.5q0 52 -27 80.5t-76 28.5h-10q-64 0 -64 -61v-88q0 -60 64 -60z
M320 54h35q133 0 133 126q0 135 -168 135q-20 0 -32.5 -15.5t-12.5 -44.5v-163q0 -38 45 -38z" />
    <glyph glyph-name="uni0413" unicode="&#x413;" horiz-adv-x="601" 
d="M30 0v42q76 8 76 67v403q0 59 -76 67v42h515l31 -156h-42q-52 107 -116 107h-67q-40 0 -58 -12t-18 -48v-403q0 -60 86 -67v-42h-331z" />
    <glyph glyph-name="uni0414" unicode="&#x414;" horiz-adv-x="751" 
d="M25 -115v158q0 10 10 11q83 12 114.5 129t31.5 332q0 31 -17.5 45t-61.5 19v42h617v-42q-41 -6 -60 -20t-19 -46v-397q0 -26 15.5 -44t45.5 -18q13 0 17.5 -6.5t0.5 -26.5l-20 -136h-42q0 75 -44.5 95t-183.5 20h-150q-129 0 -170.5 -23.5t-41.5 -91.5h-42zM130 54h282
q26 0 42 18.5t16 44.5v394q0 61 -58 61h-125q-58 0 -58 -55q0 -389 -99 -463z" />
    <glyph glyph-name="uni0415" unicode="&#x415;" horiz-adv-x="630" 
d="M30 0v40q76 9 76 67v407q0 59 -76 67v40h508q13 0 14 -10q7 -68 21 -133h-25q-28 49 -55 71t-69 22h-85q-64 0 -64 -65v-105q0 -62 64 -62h40q58 0 78 15.5t26 58.5h22v-198h-22q-6 42 -26 57.5t-78 15.5h-40q-64 0 -64 -62v-113q0 -63 53 -65l108 1q43 1 68.5 14.5
t46.5 41.5l24 35h25q-21 -47 -30 -126q-2 -14 -16 -14h-524z" />
    <glyph glyph-name="uni0416" unicode="&#x416;" horiz-adv-x="1165" 
d="M992 147q37 -52 71 -75t77 -30v-42h-355v42q22 7 32.5 15t13 23.5t-13.5 36.5l-69 116q-20 31 -37 41t-38 10h-8v-177q0 -58 76 -67v-40h-321v40q75 9 75 67v177h-8q-20 0 -37 -10t-37 -41l-69 -116q-17 -21 -14 -36.5t13 -23.5t32 -15v-42h-355v42q43 7 77 30t71 75
l126 183q19 24 16.5 46t-28.5 52l-75 83q-11 12 -21 12.5t-19.5 -7.5t-19.5 -17.5t-26.5 -18t-34.5 -8.5q-33 0 -55 22t-22 53q0 36 30.5 58.5t73.5 22.5q66 0 137 -83l109 -126q36 -42 63 -56.5t64 -14.5h9v166q0 59 -75 67v40h321v-40q-76 -8 -76 -67v-166h10
q36 0 63 14.5t64 56.5l109 126q71 83 137 83q43 0 73.5 -22.5t30.5 -58.5q0 -31 -22 -53t-56 -22q-18 0 -34.5 8.5t-26.5 18t-19.5 17.5t-19.5 7.5t-21 -12.5l-75 -83q-26 -30 -28.5 -52t16.5 -46z" />
    <glyph glyph-name="uni0417" unicode="&#x417;" horiz-adv-x="615" 
d="M296 -12q-104 0 -182.5 46t-78.5 125q0 39 20.5 58.5t52.5 19.5q29 0 45.5 -12t20 -26.5t6 -35.5t5.5 -29q5 -15 12.5 -29t21 -31t35.5 -27.5t49 -10.5q58 0 87.5 45.5t29.5 108.5q0 58 -26.5 92t-72.5 34q-37 0 -64 -19l-15 42q84 29 120 63t36 80q0 99 -93 99
q-58 0 -110 -36t-76 -101q-7 -17 -11.5 -23t-14.5 -6q-28 0 -38.5 27.5t-5 65.5t21.5 76q31 22 100.5 37.5t134.5 15.5q99 0 167 -38t68 -103q0 -50 -38 -80.5t-84 -40.5q57 1 106.5 -41.5t49.5 -122.5q0 -100 -81 -161.5t-198 -61.5z" />
    <glyph glyph-name="uni0418" unicode="&#x418;" horiz-adv-x="777" 
d="M747 581q-76 -8 -76 -67v-407q0 -58 76 -67v-40h-321v40q76 9 76 67v289l-227 -274v-15q0 -58 76 -67v-40h-321v40q76 9 76 67v407q0 59 -76 67v40h321v-40q-76 -8 -76 -67v-318l227 275v43q0 59 -76 67v40h321v-40z" />
    <glyph glyph-name="uni0419" unicode="&#x419;" horiz-adv-x="777" 
d="M406 705q-63 0 -109 37t-46 108q0 11 10 11h39q6 0 10 -13q15 -53 96 -53q82 0 97 53q3 13 10 13h39q10 0 10 -11q0 -71 -46.5 -108t-109.5 -37zM747 581q-76 -8 -76 -67v-407q0 -58 76 -67v-40h-321v40q76 9 76 67v289l-227 -274v-15q0 -58 76 -67v-40h-321v40
q76 9 76 67v407q0 59 -76 67v40h321v-40q-76 -8 -76 -67v-318l227 275v43q0 59 -76 67v40h321v-40z" />
    <glyph glyph-name="uni041A" unicode="&#x41a;" horiz-adv-x="776" 
d="M602 147q38 -53 72 -75.5t77 -29.5v-42h-356v42q22 7 32.5 15t13 23.5t-13.5 36.5l-69 116q-20 31 -37 41t-38 10h-8v-177q0 -58 76 -67v-40h-321v40q76 9 76 67v407q0 59 -76 67v40h321v-40q-76 -8 -76 -67v-166h10q37 0 64 14.5t63 56.5l109 126q71 83 137 83
q43 0 73.5 -22.5t30.5 -58.5q0 -31 -22 -53t-55 -22q-23 0 -43 12.5t-29 23.5t-23.5 15.5t-25.5 -12.5l-75 -83q-26 -29 -29 -51.5t16 -46.5z" />
    <glyph glyph-name="uni041B" unicode="&#x41b;" horiz-adv-x="783" 
d="M138 -11q-59 0 -91 26t-32 67q0 29 17.5 45t44.5 16q23 0 34.5 -15t13.5 -33t9.5 -33t22.5 -15q22 0 27.5 39t5.5 177v249q0 31 -18 47t-66 20v42h647v-42q-76 -8 -76 -67v-403q0 -59 76 -67v-42h-321v42q76 8 76 67v403q0 55 -78 55h-90q-39 0 -56.5 -13t-17.5 -42v-227
q0 -18 0.5 -53.5t0.5 -51.5t-1.5 -45t-4.5 -42.5t-9 -34.5t-15.5 -30.5t-23 -20t-32.5 -14.5t-43 -4z" />
    <glyph glyph-name="uni041C" unicode="&#x41c;" horiz-adv-x="888" 
d="M30 0v40q81 10 81 67v407q0 29 -21.5 46t-59.5 21v40h244l175 -373l164 373h245v-40q-76 -8 -76 -67v-407q0 -58 76 -67v-40h-321v40q75 9 75 67v363l-188 -422h-47l-201 426v-367q0 -57 84 -67v-40h-230z" />
    <glyph glyph-name="uni041D" unicode="&#x41d;" horiz-adv-x="763" 
d="M733 581q-76 -8 -76 -67v-407q0 -58 76 -67v-40h-321v40q76 9 76 67v140q0 16 -14 24t-34 8h-117q-20 0 -34 -8t-14 -24v-140q0 -58 76 -67v-40h-321v40q76 9 76 67v407q0 59 -76 67v40h321v-40q-76 -8 -76 -67v-153q0 -32 49 -32h115q49 0 49 32v153q0 59 -76 67v40h321
v-40z" />
    <glyph glyph-name="uni041E" unicode="&#x41e;" horiz-adv-x="729" 
d="M362 -10q-86 0 -160 34.5t-123 109t-49 174.5q0 102 49 178.5t124.5 113.5t164.5 37q86 0 159.5 -34.5t122.5 -108t49 -172.5q0 -103 -49 -180.5t-124 -114.5t-164 -37zM391 42q52 0 89 54t37 164q0 137 -52 231t-127 94q-52 0 -88.5 -53.5t-36.5 -162.5
q0 -138 52 -232.5t126 -94.5z" />
    <glyph glyph-name="uni041F" unicode="&#x41f;" horiz-adv-x="758" 
d="M728 581q-76 -8 -76 -67v-407q0 -58 76 -67v-40h-321v40q75 9 75 67v407q0 16 -6 28q-12 15 -41 15h-112q-30 0 -42 -16q-6 -12 -6 -27v-407q0 -58 76 -67v-40h-321v40q76 9 76 67v407q0 59 -76 67v40h698v-40z" />
    <glyph glyph-name="uni0420" unicode="&#x420;" horiz-adv-x="668" 
d="M30 0v40q76 9 76 67v407q0 59 -76 67v40h322q144 0 217.5 -53t73.5 -147q0 -92 -74 -146t-217 -54h-22q-30 0 -42.5 -13.5t-12.5 -45.5v-55q0 -58 86 -67v-40h-331zM330 273h22q127 0 127 146q0 152 -127 152h-19q-58 0 -58 -65v-174q0 -32 12.5 -45.5t42.5 -13.5z" />
    <glyph glyph-name="uni0421" unicode="&#x421;" horiz-adv-x="674" 
d="M374 -10q-143 0 -243.5 87.5t-100.5 237.5q0 148 100 235t252 87q119 0 190 -52.5t71 -122.5q0 -38 -23 -65t-69 -27q-44 0 -67 25.5t-25 63.5q-3 60 -29.5 98.5t-80.5 38.5q-65 0 -99.5 -58.5t-32.5 -158.5q1 -143 72.5 -220t166.5 -77q90 0 153 70l30 -25
q-27 -50 -94 -93.5t-171 -43.5z" />
    <glyph glyph-name="uni0422" unicode="&#x422;" horiz-adv-x="680" 
d="M147 0v40q59 4 83.5 20.5t24.5 48.5v392q0 44 -12.5 55t-54.5 11q-51 0 -75 -24t-47 -89h-41l20 147q2 25 25 22q22 -2 55 -2h430q33 0 55 2q23 3 25 -22l20 -147h-41q-24 65 -48 89t-75 24q-42 0 -54 -11t-12 -55v-392q0 -32 24 -48.5t83 -20.5v-40h-385z" />
    <glyph glyph-name="uni0423" unicode="&#x423;" horiz-adv-x="679" 
d="M441 621h223v-42q-10 -1 -18 -4t-16 -10t-12.5 -10.5t-12 -15t-9 -14.5t-9.5 -18t-9 -16l-170 -327q-49 -94 -99.5 -136.5t-119.5 -42.5q-63 0 -104 30.5t-41 75.5q0 30 19.5 47t49.5 17t43 -16.5t14 -35.5t10.5 -35.5t31.5 -16.5q12 0 20 1.5t28.5 16.5t41.5 45
l-185 352q-6 12 -16 31.5t-14.5 28t-12.5 20.5t-15.5 17.5t-18.5 10t-25 5.5v42h310v-42q-35 -7 -44 -34t15 -75l99 -190l109 211q15 28 -7.5 54t-55.5 34v42z" />
    <glyph glyph-name="uni0424" unicode="&#x424;" horiz-adv-x="828" 
d="M253 0v42q33 4 54.5 17.5t21.5 33.5q0 36 -55 36h-17q-107 0 -167 47.5t-60 134.5t60 134.5t167 47.5h17q55 0 55 35q0 20 -21.5 33.5t-54.5 17.5v42h321v-42q-33 -4 -54 -17.5t-21 -33.5q0 -35 55 -35h17q107 0 167 -47.5t60 -134.5t-60 -134.5t-167 -47.5h-17
q-55 0 -55 -36q0 -20 21 -33.5t54 -17.5v-42h-321zM257 193h17q30 0 42.5 12.5t12.5 40.5v130q0 28 -12.5 40.5t-42.5 12.5h-17q-42 0 -66.5 -35t-24.5 -83t24.5 -83t66.5 -35zM554 193h17q42 0 66.5 35t24.5 83t-24.5 83t-66.5 35h-17q-30 0 -42.5 -12.5t-12.5 -40.5v-130
q0 -28 12.5 -40.5t42.5 -12.5z" />
    <glyph glyph-name="uni0425" unicode="&#x425;" horiz-adv-x="709" 
d="M20 0v40q96 8 265 225l6 7l-139 207q-24 36 -63 67.5t-72 34.5v40h335v-40q-38 -3 -48 -29t7 -45l75 -113q160 179 66 187v40h233v-40q-98 -8 -267 -225l-3 -4l141 -212q24 -35 62 -66t71 -34v-40h-335v40q26 2 39.5 15.5t12 29t-9.5 29.5l-76 115q-152 -167 -79 -187
q5 -1 12 -2v-40h-233z" />
    <glyph glyph-name="uni0426" unicode="&#x426;" horiz-adv-x="772" 
d="M727 54q13 0 17.5 -6.5t0.5 -26.5l-3 -20v-1l-17 -115h-42q0 75 -47 95t-200 20h-406v40q76 9 76 67v407q0 59 -76 67v40h321v-40q-76 -8 -76 -67v-398q0 -24 16.5 -43t43.5 -19h103q26 0 42 19t16 43v398q0 59 -75 67v40h321v-40q-76 -8 -76 -67v-398q0 -26 15.5 -44
t45.5 -18z" />
    <glyph glyph-name="uni0427" unicode="&#x427;" horiz-adv-x="777" 
d="M426 0v42q76 8 76 67v85q0 37 -17 37q-6 0 -12 -7q-21 -25 -70.5 -50t-106.5 -25q-79 0 -135.5 45t-56.5 145v173q0 60 -74 67v42h311v-42q-68 -8 -68 -67v-142q0 -56 33.5 -90t93.5 -34q49 0 75.5 32t26.5 88v146q0 59 -76 67v42h321v-42q-76 -8 -76 -67v-403
q0 -59 76 -67v-42h-321z" />
    <glyph glyph-name="uni0428" unicode="&#x428;" horiz-adv-x="1064" 
d="M1034 581q-75 -8 -75 -67v-407q0 -58 75 -67v-40h-1004v40q76 9 76 67v407q0 59 -76 67v40h321v-40q-76 -8 -76 -67v-398q0 -24 15 -43t34 -19h61q28 0 45 19t17 43v398q0 59 -75 67v40h321v-40q-76 -8 -76 -67v-398q0 -24 15 -43t34 -19h61q28 0 45 19t17 43v398
q0 59 -75 67v40h320v-40z" />
    <glyph glyph-name="uni0429" unicode="&#x429;" horiz-adv-x="1055" 
d="M1010 54q13 0 17.5 -6.5t0.5 -26.5l-3 -20v-1l-17 -115h-42q0 75 -47 95t-200 20h-699v40q76 9 76 67v407q0 59 -76 67v40h321v-40q-75 -8 -75 -67v-398q0 -24 15 -43t33 -19h62q28 0 45 19t17 43v398q0 59 -76 67v40h321v-40q-76 -8 -76 -67v-398q0 -24 15 -43t34 -19
h62q28 0 44 18.5t17 42.5v1v398q0 59 -75 67v40h321v-40q-76 -8 -76 -67v-398q0 -26 15.5 -44t45.5 -18z" />
    <glyph glyph-name="uni042A" unicode="&#x42a;" horiz-adv-x="784" 
d="M146 0v42q76 8 76 67v403q0 20 -15.5 40t-43.5 20q-54 0 -106 -107h-42l31 156h421v-42q-75 -8 -75 -67v-53q0 -28 12.5 -40.5t42.5 -12.5h21q143 0 217 -55.5t74 -150.5q0 -94 -73.5 -147t-217.5 -53h-322zM439 64h29q70 0 99 36t29 102q0 140 -128 140h-21
q-30 0 -42.5 -12.5t-12.5 -40.5v-174q0 -51 47 -51z" />
    <glyph glyph-name="uni042B" unicode="&#x42b;" horiz-adv-x="970" 
d="M352 406q143 0 217 -55.5t74 -150.5q0 -94 -73.5 -147t-217.5 -53h-322v40q76 9 76 67v407q0 59 -76 67v40h321v-40q-76 -8 -76 -67v-55q0 -28 12.5 -40.5t42.5 -12.5h22zM940 581q-75 -8 -75 -67v-407q0 -58 75 -67v-40h-321v40q76 9 76 67v407q0 59 -76 67v40h321v-40z
M352 64q69 0 98 36t29 102q0 140 -127 140h-22q-30 0 -42.5 -12.5t-12.5 -40.5v-174q0 -51 48 -51h29z" />
    <glyph glyph-name="uni042C" unicode="&#x42c;" horiz-adv-x="697" 
d="M352 406q143 0 217 -55.5t74 -150.5q0 -94 -73.5 -147t-217.5 -53h-322v40q76 9 76 67v407q0 59 -76 67v40h321v-40q-76 -8 -76 -67v-55q0 -28 12.5 -40.5t42.5 -12.5h22zM352 64q69 0 98 36t29 102q0 140 -127 140h-22q-30 0 -42.5 -12.5t-12.5 -40.5v-174q0 -51 48 -51
h29z" />
    <glyph glyph-name="uni042D" unicode="&#x42d;" horiz-adv-x="674" 
d="M292 637q152 0 252 -87t100 -235q0 -150 -100.5 -237.5t-243.5 -87.5q-104 0 -171 43.5t-94 93.5l30 25q63 -70 153 -70q72 0 133.5 46t88.5 133q-5 14 -31 14h-165v65h174q31 0 39 21v18q2 100 -32.5 158.5t-99.5 58.5q-54 0 -80.5 -38.5t-29.5 -98.5q-2 -38 -25 -63.5
t-67 -25.5q-46 0 -69 27t-23 65q0 70 71 122.5t190 52.5z" />
    <glyph glyph-name="uni042E" unicode="&#x42e;" horiz-adv-x="1047" 
d="M685 637q86 0 160 -34.5t123 -108t49 -172.5q0 -103 -49 -180.5t-124.5 -114.5t-164.5 -37q-126 0 -221.5 75t-107.5 208h-75v-166q0 -58 76 -67v-40h-321v40q76 9 76 67v407q0 59 -76 67v40h321v-40q-76 -8 -76 -67v-177h74q10 139 107.5 219.5t228.5 80.5zM709 42
q52 0 88.5 53.5t36.5 164.5q0 137 -52 231t-126 94q-52 0 -89 -53.5t-37 -162.5q0 -139 52 -233t127 -94z" />
    <glyph glyph-name="uni042F" unicode="&#x42f;" horiz-adv-x="724" 
d="M694 0h-331v40q86 9 86 67v102q0 56 -49 56q-31 0 -49 -19.5t-39 -67.5q-28 -68 -51 -102.5t-63 -55t-103 -20.5h-75v40q15 0 27.5 7.5t22.5 22.5t15.5 26.5t13.5 30.5t10 24q25 66 53.5 92t79.5 40q5 1 5 7.5t-5 6.5q-80 6 -122.5 50t-42.5 104q0 82 69 126t182 44h366
v-40q-76 -8 -76 -67v-407q0 -58 76 -67v-40zM394 321q30 0 42.5 13.5t12.5 44.5v127q0 65 -46 65h-56q-48 0 -72 -36.5t-24 -83.5q0 -49 28 -89.5t91 -40.5h24z" />
    <glyph glyph-name="uni0430" unicode="&#x430;" horiz-adv-x="544" 
d="M162 -6q-57 0 -94.5 27.5t-37.5 82.5q0 62 57.5 97t189.5 58q28 4 36.5 13t8.5 34v6q0 56 -13 79.5t-43 23.5q-60 0 -60 -70q0 -33 -23.5 -50t-55.5 -17q-33 0 -51 17.5t-18 43.5q0 56 72.5 88.5t170.5 32.5q90 0 130.5 -40.5t40.5 -154.5v-163q0 -26 11 -39t32 -4v-22
q-18 -43 -85 -43q-47 0 -72.5 20.5t-31.5 45.5q-2 11 -7 12.5t-13 -7.5q-58 -71 -144 -71zM235 77q40 0 63.5 29t23.5 73v11q0 17 -8.5 23t-31.5 5q-55 -3 -78 -28.5t-23 -56.5q0 -25 13.5 -40.5t40.5 -15.5z" />
    <glyph glyph-name="uni0431" unicode="&#x431;" horiz-adv-x="560" 
d="M286 -6q-34 0 -65 6t-67 26t-62 52.5t-43.5 91.5t-18.5 137q-1 314 279 314h37q38 0 53 3.5t26 15.5h45q0 -66 -39.5 -103.5t-117.5 -37.5h-53q-33 0 -50 -0.5t-40.5 -2.5t-34.5 -6.5t-23 -12.5t-16.5 -20.5t-4.5 -30.5q0 -51 38 -51q13 0 33 13.5t39.5 29t52.5 29
t68 13.5q83 0 145.5 -62t62.5 -165q0 -111 -72 -175t-172 -64zM299 49q34 0 53 36.5t19 99.5q0 93 -34.5 146t-78.5 53q-37 0 -60.5 -39t-23.5 -104q0 -89 39 -140.5t86 -51.5z" />
    <glyph glyph-name="uni0432" unicode="&#x432;" horiz-adv-x="559" 
d="M30 0v45q32 4 43 14.5t11 34.5v266q0 23 -12 32t-42 14v45h280q106 0 152 -26t46 -82q0 -37 -23 -65t-69 -37q118 -20 118 -118q0 -57 -56 -90t-171 -33q-47 0 -91 2t-55 2q-82 0 -131 -4zM259 266h32q45 0 58.5 17t13.5 51t-14 52t-58 18h-32q-25 0 -25 -25v-88
q0 -25 25 -25zM266 49h43q79 0 79 85q0 46 -24.5 67t-89.5 21h-15q-25 0 -25 -25v-113q0 -35 32 -35z" />
    <glyph glyph-name="uni0433" unicode="&#x433;" horiz-adv-x="507" 
d="M30 0v45q28 3 41 12t13 30v273q0 23 -12 32t-42 14v45h416l26 -127h-45q-28 52 -47 66t-74 14h-47q-25 0 -25 -25v-292q0 -21 13 -30t39 -12v-45h-256z" />
    <glyph glyph-name="uni0434" unicode="&#x434;" horiz-adv-x="669" 
d="M20 -110v148q0 10 10 11q42 6 71.5 34.5t44 75.5t20 97.5t5.5 114.5q0 18 -15 23.5t-64 11.5v45h534v-45q-61 -9 -71 -17q-8 -6 -8 -17v-277q0 -47 72 -47q13 0 11 -12l-24 -146h-45v7q0 30 -0.5 42t-7.5 27t-16 19t-34.5 9t-54 5.5t-82.5 0.5h-117q-85 0 -123.5 -10
t-49.5 -31t-11 -69h-45zM127 48h212q58 0 58 47v274q0 19 -8.5 27t-27.5 8h-108q-18 0 -24.5 -7t-6.5 -26q0 -265 -95 -323z" />
    <glyph glyph-name="uni0435" unicode="&#x435;" horiz-adv-x="531" 
d="M279 -6q-102 0 -175.5 59t-73.5 170q0 78 39.5 133.5t96.5 79.5t122 24q82 0 137 -38.5t55 -102.5q0 -26 -11 -44.5t-24 -28t-42 -16.5t-45 -8.5t-53 -4.5l-78 -6q-31 -2 -25 -42q5 -44 48.5 -70.5t97.5 -26.5q73 0 118 51l30 -27q-17 -35 -77 -68.5t-140 -33.5zM227 250
l36 4q50 5 66.5 19t16.5 45q0 40 -18 68t-54 28q-40 0 -60.5 -33.5t-20.5 -80.5q0 -27 7.5 -39t26.5 -11z" />
    <glyph glyph-name="uni0436" unicode="&#x436;" horiz-adv-x="921" 
d="M793 107q30 -35 51.5 -47t51.5 -15v-45h-265v45q16 2 23.5 5.5t7.5 13t-12 24.5l-78 99q-12 14 -29 14h-10v-114q0 -21 13 -30t39 -12v-45h-256v45q27 3 40.5 12t13.5 30v114h-10q-17 0 -29 -14l-78 -99q-12 -15 -12 -24.5t7.5 -13t23.5 -5.5v-45h-265v45q30 3 51.5 15
t51.5 47l123 153q16 20 0 36l-51 57q-7 9 -17 7t-16.5 -8t-21 -12.5t-30.5 -6.5q-28 0 -45 18t-17 46q0 27 17.5 43.5t48.5 16.5q23 0 44 -11.5t30 -20.5t34 -36l101 -115q25 -30 45 -30h15v120q0 21 -13.5 30t-40.5 12v45h256v-45q-26 -3 -39 -12t-13 -30v-120h15
q20 0 45 30l101 115q41 45 61 56q21 12 47 12q31 0 48.5 -16.5t17.5 -43.5q0 -28 -17 -46t-45 -18q-16 0 -30.5 6.5t-21.5 12.5t-16.5 8t-16.5 -7l-51 -57q-16 -16 0 -36z" />
    <glyph glyph-name="uni0437" unicode="&#x437;" horiz-adv-x="488" 
d="M219 -8q-91 0 -140 37.5t-49 84.5q0 63 64 63q16 0 26 -3.5t16 -12t9 -15t6.5 -20t6.5 -20.5q12 -33 28.5 -51t47.5 -18q37 0 59.5 27t22.5 74q0 39 -18.5 56t-45.5 17q-32 0 -56 -11l-18 49q63 25 90 50t27 55q0 61 -55 61q-36 0 -71 -26t-46 -73q-1 -8 -7 -15t-17 -7
q-65 0 -33 127q86 39 175 39q84 0 133 -28t49 -79q0 -59 -85 -96q46 6 85.5 -26t39.5 -82q0 -70 -72 -113.5t-172 -43.5z" />
    <glyph glyph-name="uni0438" unicode="&#x438;" horiz-adv-x="633" 
d="M603 406q-26 -3 -39 -12t-13 -30v-277q0 -21 13 -30t39 -12v-45h-256v45q27 3 40.5 12t13.5 30v194l-167 -166v-28q0 -21 13 -30t39 -12v-45h-256v45q28 3 41 12t13 30v277q0 21 -13 30t-41 12v45h256v-45q-26 -3 -39 -12t-13 -30v-195l167 171v24q0 21 -13.5 30
t-40.5 12v45h256v-45z" />
    <glyph glyph-name="uni0439" unicode="&#x439;" horiz-adv-x="633" 
d="M317 535q-63 0 -109 37t-46 108q0 11 10 11h39q6 0 10 -13q15 -53 96 -53q82 0 97 53q3 13 10 13h39q10 0 10 -11q0 -71 -46.5 -108t-109.5 -37zM603 406q-26 -3 -39 -12t-13 -30v-277q0 -21 13 -30t39 -12v-45h-256v45q27 3 40.5 12t13.5 30v194l-167 -166v-28
q0 -21 13 -30t39 -12v-45h-256v45q28 3 41 12t13 30v277q0 21 -13 30t-41 12v45h256v-45q-26 -3 -39 -12t-13 -30v-195l167 171v24q0 21 -13.5 30t-40.5 12v45h256v-45z" />
    <glyph glyph-name="uni043A" unicode="&#x43a;" horiz-adv-x="612" 
d="M494 107q30 -35 51.5 -47t51.5 -15v-45h-265v45q16 2 23.5 5.5t7.5 13t-12 24.5l-78 99q-12 14 -29 14h-10v-114q0 -21 13 -30t39 -12v-45h-256v45q28 3 41 12t13 30v277q0 21 -13 30t-41 12v45h256v-45q-26 -3 -39 -12t-13 -30v-120h15q20 0 45 30l101 115q41 45 61 56
q22 12 47 12q31 0 48.5 -16.5t17.5 -43.5q0 -28 -17 -46t-45 -18q-16 0 -30.5 6.5t-21.5 12.5t-16.5 8t-16.5 -7l-51 -57q-16 -16 0 -36z" />
    <glyph glyph-name="uni043B" unicode="&#x43b;" horiz-adv-x="653" 
d="M135 -11q-51 0 -83 24.5t-32 63.5q0 60 54 60q25 0 35.5 -15t10.5 -33t6.5 -33t23.5 -15q35 0 46.5 41.5t11.5 151.5v130q0 21 -21.5 29t-71.5 13v45h508v-45q-26 -3 -39 -12t-13 -30v-277q0 -21 13 -30t39 -12v-45h-256v45q27 3 40.5 12t13.5 30v277q0 40 -54 40h-53
q-54 0 -54 -40v-141q0 -105 -10 -143q-23 -91 -115 -91z" />
    <glyph glyph-name="uni043C" unicode="&#x43c;" horiz-adv-x="717" 
d="M687 406q-26 -3 -39 -12t-13 -30v-277q0 -21 13 -30t39 -12v-45h-256v45q28 3 41 12t13 30v235l-120 -278h-100l-129 275v-232q0 -21 13 -30t40 -12v-45h-159v45q28 3 41 12t13 30v277q0 21 -13 30t-41 12v45h194l135 -287l126 287h202v-45z" />
    <glyph glyph-name="uni043D" unicode="&#x43d;" horiz-adv-x="648" 
d="M618 406q-26 -3 -39 -12t-13 -30v-277q0 -21 13 -30t39 -12v-45h-256v45q28 3 41 12t13 30v111h-182v-111q0 -21 13 -30t39 -12v-45h-256v45q28 3 41 12t13 30v277q0 21 -13 30t-41 12v45h256v-45q-26 -3 -39 -12t-13 -30v-118h182v118q0 21 -13 30t-41 12v45h256v-45z
" />
    <glyph glyph-name="uni043E" unicode="&#x43e;" horiz-adv-x="553" 
d="M278 -6q-101 0 -174.5 61t-73.5 175q0 77 37 130.5t91 76.5t117 23q102 0 175 -61t73 -175q0 -113 -72.5 -171.5t-172.5 -58.5zM293 40q69 0 69 138q0 97 -29 167t-73 70q-69 0 -69 -139q0 -97 29.5 -166.5t72.5 -69.5z" />
    <glyph glyph-name="uni043F" unicode="&#x43f;" horiz-adv-x="653" 
d="M30 0v45q28 3 41 12t13 30v277q0 21 -13 30t-41 12v45h593v-45q-26 -3 -39 -12t-13 -30v-277q0 -21 13 -30t39 -12v-45h-256v45q27 3 40.5 12t13.5 30v277q0 40 -54 40h-81q-52 0 -52 -40v-277q0 -21 13 -30t39 -12v-45h-256z" />
    <glyph glyph-name="uni0440" unicode="&#x440;" horiz-adv-x="619" 
d="M19 -190v38q36 3 50 17.5t14 51.5v423q0 33 -16 44t-47 8v39l163 27q50 7 50 -36v-7q0 -13 8.5 -16t16.5 6q50 55 131 55q83 0 141.5 -59.5t58.5 -165.5q0 -112 -66.5 -176.5t-156.5 -64.5q-25 0 -49 5.5t-38 11.5t-25.5 9t-16 -1.5t-4.5 -20.5v-81q0 -37 15 -51.5
t54 -17.5v-38h-283zM343 39q85 0 85 146q0 84 -27.5 139t-77.5 55q-38 0 -64 -33t-26 -112v-57q0 -76 34.5 -107t75.5 -31z" />
    <glyph glyph-name="uni0441" unicode="&#x441;" horiz-adv-x="515" 
d="M277 -6q-99 0 -173 60.5t-74 169.5q0 59 22.5 105.5t60 74t82 42t91.5 14.5q83 0 138.5 -40.5t55.5 -95.5q0 -29 -16 -49t-51 -20q-60 0 -73 68q0 3 -2 22t-4 26.5t-8 20t-17.5 17.5t-29.5 5q-88 0 -88 -133q0 -93 45.5 -150.5t118.5 -57.5q58 0 96 51l29 -21
q-15 -39 -70.5 -74t-132.5 -35z" />
    <glyph glyph-name="uni0442" unicode="&#x442;" horiz-adv-x="543" 
d="M138 0v45q31 3 45 12t14 30v249q0 41 -13 54.5t-44 13.5q-29 0 -45.5 -15t-29.5 -64h-45l16 126h471l16 -126h-46q-13 50 -29 64.5t-44 14.5q-31 0 -44 -13.5t-13 -54.5v-249q0 -21 14 -30t45 -12v-45h-268z" />
    <glyph glyph-name="uni0443" unicode="&#x443;" horiz-adv-x="574" 
d="M161 -198q-54 0 -89 23.5t-35 61.5q0 26 16 45.5t50 19.5q29 0 43.5 -16.5t16.5 -36t10 -36t25 -16.5q28 0 35 26q16 44 -10 113l-131 341q-13 36 -31.5 55.5t-50.5 30.5v38h264v-38q-37 -11 -42.5 -30t10.5 -56l68 -173q9 -23 16.5 -30t15 0.5t15.5 30.5l30 81
q33 101 25.5 133t-57.5 44v38h209v-38q-44 -11 -61.5 -28.5t-33.5 -57.5l-141 -373q-33 -86 -70.5 -119t-96.5 -33z" />
    <glyph glyph-name="uni0444" unicode="&#x444;" horiz-adv-x="920" 
d="M320 -190v44q36 2 50 16.5t14 50.5v147q-52 -74 -152 -74q-84 0 -143 59.5t-59 166.5q0 110 67 175t153 65q29 0 56 -8t39.5 -15.5t22.5 -9.5t13 8.5t3 39.5v55q0 33 -16 43.5t-47 7.5v45l163 27q50 7 50 -40v-183q0 -9 4 -13t9.5 -2.5t11.5 6.5q43 39 127 39
q85 0 144.5 -60t59.5 -167q0 -110 -66.5 -174.5t-152.5 -64.5q-23 0 -47 5.5t-39 11t-27.5 8.5t-18 -1.5t-5.5 -19.5v-77q0 -36 14 -50.5t48 -16.5v-44h-276zM299 75q34 0 59.5 27t25.5 85v44q0 86 -35.5 130t-76.5 44t-62 -37t-21 -96q0 -78 31.5 -137.5t78.5 -59.5z
M649 49q41 0 61.5 37t20.5 101q0 82 -28.5 137t-79.5 55q-37 0 -63 -32.5t-26 -109.5v-60q0 -67 36 -97.5t79 -30.5z" />
    <glyph glyph-name="uni0445" unicode="&#x445;" horiz-adv-x="522" 
d="M15 0v39q68 19 136 93l57 62l-90 124q-35 46 -54 64t-50 31v38h247v-38q-34 -8 -34 -25q0 -15 40 -70l21 -32q34 38 49.5 58.5t19.5 35t-4 21t-29 12.5v38h181v-38q-38 -11 -69 -34t-67 -60l-58 -61l92 -125q35 -46 54 -64t50 -30v-39h-246v39q34 8 34 25q0 15 -40 69
l-24 32q-34 -38 -49.5 -58.5t-19 -35t4.5 -20.5t29 -12v-39h-181z" />
    <glyph glyph-name="uni0446" unicode="&#x446;" horiz-adv-x="693" 
d="M585 -110q0 63 -9 78q-14 25 -82 30q-34 2 -116 2h-348v45q28 3 41 12t13 30v277q0 21 -13 30t-41 12v45h256v-45q-26 -3 -39 -12t-13 -30v-277q0 -39 52 -39h92q22 0 32.5 18.5t10.5 38.5v259q0 21 -13.5 30t-40.5 12v45h256v-45q-26 -3 -39 -12t-13 -30v-258
q0 -23 18.5 -40.5t54.5 -17.5q12 0 10 -12l-24 -146h-45z" />
    <glyph glyph-name="uni0447" unicode="&#x447;" horiz-adv-x="625" 
d="M595 429q-32 -5 -43 -14.5t-11 -36.5v-305q0 -27 11 -36.5t43 -14.5v-22h-239v22q32 5 43 14.5t11 36.5v106q0 14 -3 14l-20 -24q-57 -71 -152 -71q-72 0 -116.5 48t-44.5 149v83q0 27 -11 36.5t-43 14.5v22h239v-22q-32 -5 -43 -14.5t-11 -36.5v-83q0 -57 24 -90t65 -33
q46 0 81 26t35 77v103q0 27 -11 36.5t-43 14.5v22h239v-22z" />
    <glyph glyph-name="uni0448" unicode="&#x448;" horiz-adv-x="915" 
d="M30 0v45q28 3 41 12t13 30v277q0 21 -13 30t-41 12v45h256v-45q-26 -3 -39 -12t-13 -30v-277q0 -39 52 -39h44q53 0 53 39v277q0 21 -13 30t-40 12v45h255v-45q-27 -3 -39.5 -12t-12.5 -30v-277q0 -39 52 -39h44q52 0 52 39v277q0 21 -13 30t-39 12v45h256v-45
q-27 -3 -40.5 -12t-13.5 -30v-277q0 -21 13.5 -30t40.5 -12v-45h-855z" />
    <glyph glyph-name="uni0449" unicode="&#x449;" horiz-adv-x="953" 
d="M904 48q12 0 10 -12l-24 -146h-45q0 63 -9 78q-14 25 -82 30q-34 2 -116 2h-608v45q28 3 41 12t13 30v277q0 21 -13 30t-41 12v45h256v-45q-26 -3 -39 -12t-13 -30v-277q0 -39 52 -39h44q53 0 53 39v277q0 21 -13 30t-40 12v45h255v-45q-27 -3 -39.5 -12t-12.5 -30v-277
q0 -39 52 -39h44q14 0 20 1q32 11 32 56v259q0 21 -13 30t-39 12v45h256v-45q-27 -3 -40.5 -12t-13.5 -30v-258q0 -23 18.5 -40.5t54.5 -17.5z" />
    <glyph glyph-name="uni044A" unicode="&#x44a;" horiz-adv-x="651" 
d="M368 346q258 0 258 -171q0 -82 -63 -128.5t-195 -46.5h-250v45q28 3 41 12t13 30v272q0 28 -20 39q-3 1 -19 6h-6q-25 0 -38.5 -12.5t-28.5 -48.5h-45l22 108h338v-45q-26 -3 -39 -12t-14 -29q0 -8 6 -13.5t14 -5.5h26zM369 48q59 0 81.5 34t22.5 93t-22 91.5t-81 32.5
h-28q-8 0 -14 -6t-6 -14v-192q0 -39 47 -39z" />
    <glyph glyph-name="uni044B" unicode="&#x44b;" horiz-adv-x="851" 
d="M280 346q258 0 258 -171q0 -82 -63.5 -128.5t-194.5 -46.5h-250v45q28 3 41 12t13 30v277q0 21 -13 30t-41 12v45h256v-45q-26 -3 -38.5 -12t-13.5 -29q0 -8 6 -13.5t14 -5.5h26zM821 406q-27 -3 -39.5 -12t-12.5 -30v-277q0 -21 12.5 -30t39.5 -12v-45h-256v45
q27 3 40.5 12t13.5 30v277q0 21 -13.5 30t-40.5 12v45h256v-45zM281 48q59 0 81 34t22 93t-21.5 91.5t-80.5 32.5h-28q-8 0 -14 -6t-6 -14v-192q0 -39 47 -39z" />
    <glyph glyph-name="uni044C" unicode="&#x44c;" horiz-adv-x="592" 
d="M280 346q258 0 258 -171q0 -82 -63.5 -128.5t-194.5 -46.5h-250v45q28 3 41 12t13 30v277q0 21 -13 30t-41 12v45h256v-45q-26 -3 -38.5 -12t-13.5 -29q0 -8 6 -13.5t14 -5.5h26zM281 48q59 0 81 34t22 93t-21.5 91.5t-80.5 32.5h-28q-8 0 -14 -6t-6 -14v-192
q0 -39 47 -39z" />
    <glyph glyph-name="uni044D" unicode="&#x44d;" horiz-adv-x="515" 
d="M230 460q47 0 91 -14.5t81.5 -42t60 -74t22.5 -105.5q0 -109 -73.5 -169.5t-172.5 -60.5q-77 0 -133 35t-71 74l30 21q38 -51 95 -51q56 0 96 34t57 93h-111v44h120q2 24 2 37q0 133 -88 133q-17 0 -29 -5t-17.5 -18t-8 -19.5t-4.5 -26.5t-2 -22q-13 -68 -72 -68
q-36 0 -52 20t-16 49q0 55 56 95.5t139 40.5z" />
    <glyph glyph-name="uni044E" unicode="&#x44e;" horiz-adv-x="821" 
d="M543 460q101 0 174.5 -61t73.5 -175q0 -77 -37 -130.5t-91 -76.5t-117 -23q-92 0 -162.5 51.5t-83.5 147.5h-66v-106q0 -21 13 -30t39 -12v-45h-256v45q28 3 41 12t13 30v277q0 21 -13 30t-41 12v45h256v-45q-26 -3 -39 -12t-13 -30v-115h65q6 103 77 157t167 54zM561 40
q69 0 69 138q0 97 -29.5 167t-72.5 70q-69 0 -69 -139q0 -97 29 -166.5t73 -69.5z" />
    <glyph glyph-name="uni044F" unicode="&#x44f;" horiz-adv-x="539" 
d="M509 406q-26 -3 -39 -12t-13 -30v-277q0 -21 13 -30t39 -12v-45h-256v45q27 3 40.5 12t13.5 30v102h-25q-26 0 -39.5 -14.5t-25.5 -59.5q-15 -57 -48.5 -86t-100.5 -29h-53v45l15 3t10.5 4.5t7 5t5 9.5t5 12.5t5.5 19t7 24.5q10 31 33 54.5t56 28.5q-64 15 -92 40.5
t-28 71.5q0 64 56.5 98.5t139.5 34.5h274v-45zM229 237h78v127q0 38 -48 40q-83 -4 -83 -83q0 -32 12.5 -58t40.5 -26z" />
    <glyph glyph-name="uni0450" unicode="&#x450;" horiz-adv-x="531" 
d="M314 543q-19 -19 -38 -6l-124 73q-92 56 -39 111q48 49 108 -24l91 -112q19 -24 2 -42zM279 -6q-102 0 -175.5 59t-73.5 170q0 78 39.5 133.5t96.5 79.5t122 24q82 0 137 -38.5t55 -102.5q0 -26 -11 -44.5t-24 -28t-42 -16.5t-45 -8.5t-53 -4.5l-78 -6q-31 -2 -25 -42
q5 -44 48.5 -70.5t97.5 -26.5q73 0 118 51l30 -27q-17 -35 -77 -68.5t-140 -33.5zM227 250l36 4q50 5 66.5 19t16.5 45q0 40 -18 68t-54 28q-40 0 -60.5 -33.5t-20.5 -80.5q0 -27 7.5 -39t26.5 -11z" />
    <glyph glyph-name="uni0451" unicode="&#x451;" horiz-adv-x="531" 
d="M140 498q-36 0 -61.5 24.5t-25.5 59.5q0 37 25.5 62t61.5 25q35 0 60 -25t25 -62q0 -35 -25 -59.5t-60 -24.5zM378 498q-36 0 -61.5 24.5t-25.5 59.5q0 37 25.5 62t61.5 25t60.5 -25t24.5 -62q0 -35 -25 -59.5t-60 -24.5zM279 -6q-102 0 -175.5 59t-73.5 170
q0 78 39.5 133.5t96.5 79.5t122 24q82 0 137 -38.5t55 -102.5q0 -26 -11 -44.5t-24 -28t-42 -16.5t-45 -8.5t-53 -4.5l-78 -6q-31 -2 -25 -42q5 -44 48.5 -70.5t97.5 -26.5q73 0 118 51l30 -27q-17 -35 -77 -68.5t-140 -33.5zM227 250l36 4q50 5 66.5 19t16.5 45
q0 40 -18 68t-54 28q-40 0 -60.5 -33.5t-20.5 -80.5q0 -27 7.5 -39t26.5 -11z" />
    <glyph glyph-name="uni0453" unicode="&#x453;" horiz-adv-x="507" 
d="M193 543q-18 18 2 42l90 112q61 74 109 24q52 -55 -40 -111l-123 -73q-19 -13 -38 6zM30 0v45q28 3 41 12t13 30v273q0 23 -12 32t-42 14v45h416l26 -127h-45q-28 52 -47 66t-74 14h-47q-25 0 -25 -25v-292q0 -21 13 -30t39 -12v-45h-256z" />
    <glyph glyph-name="uni0454" unicode="&#x454;" horiz-adv-x="515" 
d="M355 73q58 0 96 51l29 -21q-15 -39 -70.5 -74t-132.5 -35q-99 0 -173 60.5t-74 169.5q0 59 22.5 105.5t60 74t82 42t91.5 14.5q83 0 138.5 -40.5t55.5 -95.5q0 -29 -16 -49t-51 -20q-60 0 -73 68q0 3 -2 22t-4 26.5t-8 20t-17.5 17.5t-29.5 5q-88 0 -88 -133q0 -13 2 -37
h120v-44h-111q17 -59 57 -93t96 -34z" />
    <glyph glyph-name="uni0455" unicode="&#x455;" horiz-adv-x="471" 
d="M231 -6q-81 0 -141 32.5t-60 87.5q0 59 59 59q30 0 45 -15t15 -37q0 -39 28 -60.5t64 -21.5q35 0 50 20.5t15 44.5t-19.5 37.5t-71.5 28.5q-35 10 -61 21t-53.5 29t-42.5 44t-15 58q0 65 55.5 101.5t136.5 36.5q43 0 82 -9.5t69 -35t30 -63.5q0 -48 -56 -48
q-26 0 -39.5 11.5t-13.5 25.5q0 33 -20 53.5t-55 20.5q-28 0 -43 -14t-15 -34q0 -46 77 -67q2 -1 25 -7t28.5 -8.5t27 -9.5t29 -12t24 -14.5t23.5 -19t16.5 -22.5t13 -28.5t3.5 -33.5q0 -75 -61.5 -113t-148.5 -38z" />
    <glyph glyph-name="uni0456" unicode="&#x456;" 
d="M151 498q-36 0 -61.5 24.5t-25.5 59.5q0 37 25.5 62t61.5 25t60.5 -25t24.5 -62q0 -35 -25 -59.5t-60 -24.5zM24 0v39q36 2 50 17t14 55v229q0 33 -16 44t-47 8v39l163 27q50 7 50 -40v-307q0 -40 13.5 -55t48.5 -17v-39h-276z" />
    <glyph glyph-name="uni0457" unicode="&#x457;" 
d="M36 498q-36 0 -61.5 24.5t-25.5 59.5q0 37 25.5 62t61.5 25q35 0 60 -25t25 -62q0 -35 -25 -59.5t-60 -24.5zM274 498q-36 0 -61.5 24.5t-25.5 59.5q0 37 25.5 62t61.5 25t60.5 -25t24.5 -62q0 -35 -25 -59.5t-60 -24.5zM24 0v39q36 2 50 17t14 55v229q0 33 -16 44t-47 8
v39l163 27q50 7 50 -40v-307q0 -40 13.5 -55t48.5 -17v-39h-276z" />
    <glyph glyph-name="uni0458" unicode="&#x458;" horiz-adv-x="318" 
d="M167 498q-37 0 -62 24.5t-25 59.5q0 37 25 62t62 25q35 0 60 -25t25 -62q0 -35 -25 -59.5t-60 -24.5zM60 -202q-55 0 -97 21.5t-42 68.5q0 30 17 48t44 18q35 0 54 -17t21.5 -38t6.5 -38t14 -17q11 0 18 16t7 36v444q0 33 -16 44t-47 8v39l163 27q50 7 50 -40v-454
q0 -80 -55.5 -123t-137.5 -43z" />
    <glyph glyph-name="uni045E" unicode="&#x45e;" horiz-adv-x="574" 
d="M285 535q-63 0 -109 37t-46 108q0 11 10 11h39q6 0 10 -13q15 -53 96 -53q82 0 97 53q3 13 10 13h39q10 0 10 -11q0 -71 -46.5 -108t-109.5 -37zM161 -198q-54 0 -89 23.5t-35 61.5q0 26 16 45.5t50 19.5q29 0 43.5 -16.5t16.5 -36t10 -36t25 -16.5q28 0 35 26
q16 44 -10 113l-131 341q-13 36 -31.5 55.5t-50.5 30.5v38h264v-38q-37 -11 -42.5 -30t10.5 -56l68 -173q9 -23 16.5 -30t15 0.5t15.5 30.5l30 81q33 101 25.5 133t-57.5 44v38h209v-38q-44 -11 -61.5 -28.5t-33.5 -57.5l-141 -373q-33 -86 -70.5 -119t-96.5 -33z" />
    <glyph glyph-name="uni0490" unicode="&#x490;" horiz-adv-x="591" 
d="M30 0v42q76 8 76 67v403q0 59 -76 67v42h368q86 0 126 66h42l-21 -115h-194q-40 0 -58 -12t-18 -48v-403q0 -60 86 -67v-42h-331z" />
    <glyph glyph-name="uni0491" unicode="&#x491;" horiz-adv-x="487" 
d="M30 0v45q28 3 41 12t13 30v273q0 23 -12 32t-42 14v45h276q54 0 74 11.5t42 49.5h45l-21 -108h-187q-25 0 -25 -25v-292q0 -21 13 -30t39 -12v-45h-256z" />
    <glyph glyph-name="uni04E8" unicode="&#x4e8;" horiz-adv-x="729" 
d="M368 637q86 0 159.5 -34.5t122.5 -108t49 -172.5q0 -103 -49 -180.5t-124 -114.5t-164 -37q-86 0 -160 34.5t-123 109t-49 174.5q0 102 49 178.5t124.5 113.5t164.5 37zM338 585q-52 0 -88.5 -53.5t-36.5 -162.5v-25h298q-15 106 -63 173.5t-110 67.5zM391 42q52 0 89 54
t37 164v25h-298q15 -108 62.5 -175.5t109.5 -67.5z" />
    <glyph glyph-name="uni04E9" unicode="&#x4e9;" horiz-adv-x="553" 
d="M275 460q102 0 175 -61t73 -175q0 -113 -72.5 -171.5t-172.5 -58.5q-101 0 -174.5 61t-73.5 175q0 77 37 130.5t91 76.5t117 23zM260 415q-69 0 -69 -139v-22h166q-11 71 -37 116t-60 45zM293 40q69 0 69 138v20h-165q10 -70 36 -114t60 -44z" />
    <glyph glyph-name="Wgrave" unicode="&#x1e80;" horiz-adv-x="1059" 
d="M638 713q-18 -19 -37 -6l-124 73q-92 56 -40 111q48 50 109 -24l90 -112q20 -24 2 -42zM305 0l-191 448q-4 9 -11.5 28t-10 25t-9 20t-10 19t-10 13.5t-12 12.5t-14 8t-17.5 7v40h294v-40q-75 -10 -42 -90l106 -253q10 -24 20 0l39 103q4 11 16.5 37t16 38t4 34t-9.5 45
q-17 40 -32 59t-43 27v40h294v-40q-75 -10 -42 -90l107 -253q10 -24 20 0l94 246q33 82 -70 97v40h247v-40q-43 -8 -66 -34.5t-43 -75.5l-139 -355q-30 -79 -30 -116h-86l-156 364l-97 -248q-31 -78 -31 -116h-86z" />
    <glyph glyph-name="wgrave" unicode="&#x1e81;" horiz-adv-x="852" 
d="M488 543q-18 -19 -37 -6l-124 73q-92 56 -40 111q49 49 109 -24l90 -112q20 -24 2 -42zM201 0l-109 327q-19 64 -82 86v38h262v-38q-36 -10 -40.5 -29.5t8.5 -56.5l53 -176q6 -21 14.5 -28t17 0t14.5 28l27 98q0 2 3.5 18.5t5 26.5t3 29t-2.5 27q-12 47 -57 63v38h262
v-38q-36 -10 -40.5 -29.5t8.5 -56.5l53 -176q6 -21 14.5 -28t17 0t14.5 28l23 85q27 103 20 134t-56 43v38h208v-38q-45 -11 -65 -30t-31 -56l-109 -327h-128l-89 270l-91 -270h-128z" />
    <glyph glyph-name="Wacute" unicode="&#x1e82;" horiz-adv-x="1059" 
d="M492 713q-18 18 2 42l90 112q61 74 109 24q52 -55 -40 -111l-123 -73q-19 -13 -38 6zM305 0l-191 448q-4 9 -11.5 28t-10 25t-9 20t-10 19t-10 13.5t-12 12.5t-14 8t-17.5 7v40h294v-40q-75 -10 -42 -90l106 -253q10 -24 20 0l39 103q4 11 16.5 37t16 38t4 34t-9.5 45
q-17 40 -32 59t-43 27v40h294v-40q-75 -10 -42 -90l107 -253q10 -24 20 0l94 246q33 82 -70 97v40h247v-40q-43 -8 -66 -34.5t-43 -75.5l-139 -355q-30 -79 -30 -116h-86l-156 364l-97 -248q-31 -78 -31 -116h-86z" />
    <glyph glyph-name="wacute" unicode="&#x1e83;" horiz-adv-x="852" 
d="M384 543q-17 18 2 42l91 112q60 73 108 24q53 -55 -39 -111l-124 -73q-19 -13 -38 6zM201 0l-109 327q-19 64 -82 86v38h262v-38q-36 -10 -40.5 -29.5t8.5 -56.5l53 -176q6 -21 14.5 -28t17 0t14.5 28l27 98q0 2 3.5 18.5t5 26.5t3 29t-2.5 27q-12 47 -57 63v38h262v-38
q-36 -10 -40.5 -29.5t8.5 -56.5l53 -176q6 -21 14.5 -28t17 0t14.5 28l23 85q27 103 20 134t-56 43v38h208v-38q-45 -11 -65 -30t-31 -56l-109 -327h-128l-89 270l-91 -270h-128z" />
    <glyph glyph-name="Wdieresis" unicode="&#x1e84;" horiz-adv-x="1059" 
d="M413 668q-36 0 -61.5 24.5t-25.5 59.5q0 37 25.5 62t61.5 25q35 0 60 -25t25 -62q0 -35 -25 -59.5t-60 -24.5zM651 668q-36 0 -61.5 24.5t-25.5 59.5q0 37 25.5 62t61.5 25t60.5 -25t24.5 -62q0 -35 -25 -59.5t-60 -24.5zM305 0l-191 448q-4 9 -11.5 28t-10 25t-9 20
t-10 19t-10 13.5t-12 12.5t-14 8t-17.5 7v40h294v-40q-75 -10 -42 -90l106 -253q10 -24 20 0l39 103q4 11 16.5 37t16 38t4 34t-9.5 45q-17 40 -32 59t-43 27v40h294v-40q-75 -10 -42 -90l107 -253q10 -24 20 0l94 246q33 82 -70 97v40h247v-40q-43 -8 -66 -34.5t-43 -75.5
l-139 -355q-30 -79 -30 -116h-86l-156 364l-97 -248q-31 -78 -31 -116h-86z" />
    <glyph glyph-name="wdieresis" unicode="&#x1e85;" horiz-adv-x="852" 
d="M260 498q-37 0 -62 24.5t-25 59.5q0 37 25 62t62 25q35 0 60 -25t25 -62q0 -35 -25 -59.5t-60 -24.5zM498 498q-36 0 -61.5 24.5t-25.5 59.5q0 37 25.5 62t61.5 25t60.5 -25t24.5 -62q0 -35 -25 -59.5t-60 -24.5zM201 0l-109 327q-19 64 -82 86v38h262v-38
q-36 -10 -40.5 -29.5t8.5 -56.5l53 -176q6 -21 14.5 -28t17 0t14.5 28l27 98q0 2 3.5 18.5t5 26.5t3 29t-2.5 27q-12 47 -57 63v38h262v-38q-36 -10 -40.5 -29.5t8.5 -56.5l53 -176q6 -21 14.5 -28t17 0t14.5 28l23 85q27 103 20 134t-56 43v38h208v-38q-45 -11 -65 -30
t-31 -56l-109 -327h-128l-89 270l-91 -270h-128z" />
    <glyph glyph-name="uni1EBC" unicode="&#x1ebc;" horiz-adv-x="630" 
d="M412 696q-46 0 -113 35.5t-92 35.5q-21 0 -35.5 -12t-14.5 -34h-40q0 61 32 94.5t90 33.5q47 0 114 -36t91 -36q51 0 51 46h39q0 -61 -31 -94t-91 -33zM30 0v40q76 9 76 67v407q0 59 -76 67v40h508q13 0 14 -10q7 -68 21 -133h-25q-28 49 -55 71t-69 22h-85
q-64 0 -64 -65v-105q0 -62 64 -62h40q58 0 78 15.5t26 58.5h22v-198h-22q-6 42 -26 57.5t-78 15.5h-40q-64 0 -64 -62v-113q0 -63 53 -65l108 1q43 1 68.5 14.5t46.5 41.5l24 35h25q-21 -47 -30 -126q-2 -14 -16 -14h-524z" />
    <glyph glyph-name="uni1EBD" unicode="&#x1ebd;" horiz-adv-x="531" 
d="M346 526q-46 0 -113 35.5t-92 35.5q-21 0 -35.5 -12t-14.5 -34h-40q0 61 32 94.5t90 33.5q47 0 114 -36t91 -36q51 0 51 46h39q0 -61 -31 -94t-91 -33zM279 -6q-102 0 -175.5 59t-73.5 170q0 78 39.5 133.5t96.5 79.5t122 24q82 0 137 -38.5t55 -102.5q0 -26 -11 -44.5
t-24 -28t-42 -16.5t-45 -8.5t-53 -4.5l-78 -6q-31 -2 -25 -42q5 -44 48.5 -70.5t97.5 -26.5q73 0 118 51l30 -27q-17 -35 -77 -68.5t-140 -33.5zM227 250l36 4q50 5 66.5 19t16.5 45q0 40 -18 68t-54 28q-40 0 -60.5 -33.5t-20.5 -80.5q0 -27 7.5 -39t26.5 -11z" />
    <glyph glyph-name="Ygrave" unicode="&#x1ef2;" horiz-adv-x="697" 
d="M493 713q-19 -19 -38 -6l-124 73q-90 56 -39 111q48 50 109 -24l90 -112q20 -24 2 -42zM171 0v40q95 8 95 67v109q0 56 -21 85l-113 170q-29 44 -40 59.5t-32.5 32.5t-44.5 18v40h313v-40q-35 -3 -44.5 -22.5t15.5 -64.5l95 -147q7 -14 14 0l104 152q20 24 9 51.5
t-56 30.5v40h217v-40q-9 -1 -17.5 -4.5t-15 -7t-15 -11t-12.5 -11.5t-12.5 -15t-10.5 -14t-10.5 -15t-9.5 -13l-122 -183q-21 -31 -21 -91v-109q0 -59 96 -67v-40h-361z" />
    <glyph glyph-name="ygrave" unicode="&#x1ef3;" horiz-adv-x="574" 
d="M392 543q-18 -19 -37 -6l-124 73q-92 56 -40 111q49 49 109 -24l90 -112q20 -24 2 -42zM161 -198q-54 0 -89 23.5t-35 61.5q0 26 16 45.5t50 19.5q29 0 43.5 -16.5t16.5 -36t10 -36t25 -16.5q28 0 35 26q16 44 -10 113l-131 341q-13 36 -31.5 55.5t-50.5 30.5v38h264v-38
q-37 -11 -42.5 -30t10.5 -56l68 -173q9 -23 16.5 -30t15 0.5t15.5 30.5l30 81q33 101 25.5 133t-57.5 44v38h209v-38q-44 -11 -61.5 -28.5t-33.5 -57.5l-141 -373q-33 -86 -70.5 -119t-96.5 -33z" />
    <glyph glyph-name="endash" unicode="&#x2013;" horiz-adv-x="682" 
d="M50 205v91h582v-91h-582z" />
    <glyph glyph-name="emdash" unicode="&#x2014;" horiz-adv-x="919" 
d="M50 205v91h819v-91h-819z" />
    <glyph glyph-name="uni2015" unicode="&#x2015;" horiz-adv-x="919" 
d="M50 205v91h819v-91h-819z" />
    <glyph glyph-name="quoteleft" unicode="&#x2018;" horiz-adv-x="234" 
d="M139 636l26 -28q-56 -47 -56 -83q0 -15 18 -15q34 0 55.5 -22.5t21.5 -55.5q0 -37 -23.5 -60.5t-62.5 -23.5q-42 0 -65 28.5t-23 77.5q0 106 109 182z" />
    <glyph glyph-name="quoteright" unicode="&#x2019;" horiz-adv-x="234" 
d="M95 349l-25 27q55 49 55 84q0 15 -18 15q-34 0 -55.5 22.5t-21.5 55.5q0 36 24 60t62 24q43 0 65.5 -29t22.5 -77q0 -108 -109 -182z" />
    <glyph glyph-name="quotesinglbase" unicode="&#x201a;" horiz-adv-x="234" 
d="M95 -137l-25 28q55 48 55 83q0 15 -18 15q-34 0 -55.5 22.5t-21.5 56.5q0 36 24 60t62 24q43 0 65.5 -29t22.5 -77q0 -107 -109 -183z" />
    <glyph glyph-name="quotedblleft" unicode="&#x201c;" horiz-adv-x="449" 
d="M139 637l26 -28q-56 -47 -56 -83q0 -15 18 -15q34 0 55.5 -22.5t21.5 -55.5q0 -37 -23.5 -60.5t-62.5 -23.5q-42 0 -65 28.5t-23 77.5q0 106 109 182zM353 637l26 -28q-56 -47 -56 -83q0 -15 18 -15q35 0 56.5 -22.5t21.5 -55.5q0 -37 -24 -60.5t-63 -23.5
q-42 0 -65 28.5t-23 77.5q0 106 109 182z" />
    <glyph glyph-name="quotedblright" unicode="&#x201d;" horiz-adv-x="449" 
d="M95 349l-25 27q55 49 55 84q0 15 -18 15q-34 0 -55.5 22.5t-21.5 55.5q0 36 24 60t62 24q43 0 65.5 -29t22.5 -77q0 -108 -109 -182zM310 349l-26 27q55 49 55 84q0 15 -18 15q-34 0 -55.5 22.5t-21.5 55.5q0 36 24 60t62 24q43 0 66 -29t23 -77q0 -106 -109 -182z" />
    <glyph glyph-name="quotedblbase" unicode="&#x201e;" horiz-adv-x="452" 
d="M95 -137l-25 28q55 48 55 83q0 15 -18 15q-34 0 -55.5 22.5t-21.5 56.5q0 36 24 60t62 24q43 0 65.5 -29t22.5 -77q0 -107 -109 -183zM313 -137l-25 28q55 48 55 83q0 15 -18 15q-34 0 -55.5 22.5t-21.5 56.5q0 36 24 60t62 24q43 0 65.5 -29t22.5 -77q0 -107 -109 -183z
" />
    <glyph glyph-name="dagger" unicode="&#x2020;" horiz-adv-x="511" 
d="M233 121l-67 224l50 48l2 26q-12 -3 -43 -20t-51 -17q-33 0 -53.5 19.5t-20.5 49.5t20.5 49.5t53.5 19.5q20 0 52 -18t44 -21q-3 20 -21 52t-18 47q0 30 20.5 49.5t53.5 19.5t54 -19.5t21 -49.5q0 -15 -18 -47t-21 -52q12 3 44 21t51 18q33 0 54 -19.5t21 -49.5
t-21 -49.5t-54 -19.5q-19 0 -50 17t-43 20l2 -26l50 -48l-67 -224h-45z" />
    <glyph glyph-name="daggerdbl" unicode="&#x2021;" horiz-adv-x="511" 
d="M255 -47q-33 0 -53.5 19.5t-20.5 49.5q0 16 18.5 48.5t22.5 52.5q-14 -4 -46.5 -22.5t-51.5 -18.5q-33 0 -53.5 19.5t-20.5 49.5t20.5 49.5t53.5 19.5q19 0 51.5 -18.5t46.5 -22.5v23l-57 100l57 98v23q-14 -4 -46.5 -22.5t-51.5 -18.5q-33 0 -53.5 19.5t-20.5 49.5
t20.5 49.5t53.5 19.5q19 0 51.5 -18.5t46.5 -22.5q-4 20 -22.5 52.5t-18.5 48.5q0 30 20.5 49.5t53.5 19.5t54 -19.5t21 -49.5q0 -16 -18.5 -48.5t-22.5 -52.5q14 4 46 22.5t51 18.5q33 0 54 -19.5t21 -49.5t-21 -49.5t-54 -19.5q-19 0 -51 18.5t-46 22.5v-23l57 -99
l-57 -99v-23q14 4 46 22.5t51 18.5q33 0 54 -19.5t21 -49.5t-21 -49.5t-54 -19.5q-19 0 -51 18.5t-46 22.5q4 -20 22.5 -52.5t18.5 -48.5q0 -30 -21 -49.5t-54 -19.5z" />
    <glyph glyph-name="bullet" unicode="&#x2022;" horiz-adv-x="442" 
d="M221 130q-67 0 -114 47t-47 114t47 114t114 47t114 -47t47 -114t-47 -114t-114 -47z" />
    <glyph glyph-name="ellipsis" unicode="&#x2026;" horiz-adv-x="664" 
d="M118 -6q-32 0 -55 23.5t-23 55.5t23 55.5t55 23.5t55.5 -23.5t23.5 -55.5t-23.5 -55.5t-55.5 -23.5zM332 -6q-32 0 -55 23.5t-23 55.5t23 55.5t55 23.5t55 -23.5t23 -55.5t-23 -55.5t-55 -23.5zM546 -6q-32 0 -55 23.5t-23 55.5t23 55.5t55 23.5t55 -23.5t23 -55.5
t-23 -55.5t-55 -23.5z" />
    <glyph glyph-name="perthousand" unicode="&#x2030;" horiz-adv-x="1056" 
d="M545 621h67l-421 -621h-121l432 565q-25 -20 -54.5 -24.5t-49.5 0t-56 16.5q8 -20 8 -49q0 -76 -49.5 -125t-124.5 -49q-64 0 -95 33t-31 86q0 75 49.5 125t125.5 50q45 0 92 -11.5t75 -20.5t68.5 -5t84.5 30zM191 378q29 0 44 35.5t15 87.5q0 83 -41 83q-29 0 -44 -35.5
t-15 -87.5q0 -83 41 -83zM547 283q64 0 94.5 -33t30.5 -86q0 -76 -49.5 -125.5t-124.5 -49.5q-65 0 -95.5 33t-30.5 87q0 75 50 124.5t125 49.5zM882 283q63 0 93.5 -33t30.5 -86q0 -76 -49 -125.5t-124 -49.5q-65 0 -95.5 33t-30.5 87q0 75 49.5 124.5t125.5 49.5zM512 33
q29 0 44 35.5t15 87.5q0 83 -40 83q-29 0 -44 -35.5t-15 -87.5q0 -83 40 -83zM847 33q29 0 44 35.5t15 87.5q0 83 -40 83q-29 0 -44 -35.5t-15 -87.5q0 -83 40 -83z" />
    <glyph glyph-name="guilsinglleft" unicode="&#x2039;" horiz-adv-x="308" 
d="M50 257l180 161l28 -28l-88 -133l88 -132l-28 -29z" />
    <glyph glyph-name="guilsinglright" unicode="&#x203a;" horiz-adv-x="308" 
d="M258 257l-179 -161l-29 29l89 132l-89 133l29 28z" />
    <glyph glyph-name="fraction" unicode="&#x2044;" horiz-adv-x="218" 
d="M-155 -5l470 641h68l-469 -641h-69z" />
    <glyph glyph-name="Euro" unicode="&#x20ac;" horiz-adv-x="745" 
d="M526 82q91 0 154 70l30 -25q-27 -50 -94 -93.5t-171 -43.5q-123 0 -217 66.5t-119 182.5h-79v33h73q-2 28 -2 43v18h-71v33h74q18 126 114.5 198.5t234.5 72.5q119 0 189.5 -52.5t70.5 -122.5q0 -38 -22.5 -65t-69.5 -27q-44 0 -67 25.5t-25 63.5q-3 60 -29 98.5
t-80 38.5q-65 0 -99.5 -58.5t-32.5 -158.5v-13h148v-33h-145q3 -29 11 -61h134v-33h-123q30 -77 88 -117t125 -40z" />
    <glyph glyph-name="trademark" unicode="&#x2122;" horiz-adv-x="648" 
d="M38 621h227l8 -61h-23q-15 31 -34 31q-28 0 -28 -26v-111q0 -20 8.5 -27.5t27.5 -9.5v-23h-145v23q19 2 27.5 9.5t8.5 27.5v111q0 26 -28 26q-19 0 -34 -31h-23zM618 598q-17 -2 -21.5 -7.5t-4.5 -26.5v-113q0 -21 4.5 -26.5t21.5 -7.5v-23h-125v23q17 2 22 8t5 26v90
l-59 -123h-40l-66 128v-95q0 -20 5 -26t22 -8v-23h-84v23q18 2 22.5 7.5t4.5 26.5v113q0 20 -5 26t-22 8v23h96l69 -132l63 132h92v-23z" />
    <glyph glyph-name="oneeighth" unicode="&#x215b;" horiz-adv-x="705" 
d="M40 -5l470 641h68l-469 -641h-69zM32 379v30q24 1 28.5 8t4.5 28v114h-35v31l74 38q12 5 21.5 -0.5t9.5 -14.5v-168q0 -14 1.5 -20.5t8 -10.5t20.5 -5v-30h-133zM556 -5q-51 0 -79 20t-28 54q0 25 15 40.5t37 18.5q-38 23 -38 58q0 30 26 49t71 19q43 0 68 -17.5
t25 -45.5q0 -21 -12 -34.5t-28 -17.5q23 -3 40 -22t17 -44q0 -32 -30 -55t-84 -23zM565 161q15 -1 21.5 7.5t6.5 22.5q0 34 -33 34q-32 0 -32 -33q0 -28 37 -31zM556 25q18 0 28.5 10.5t10.5 26.5q0 36 -34 43l-8 2q-13 2 -21 0t-12.5 -9.5t-5.5 -13.5t-1 -13
q0 -21 12 -33.5t31 -12.5z" />
    <glyph glyph-name="threeeighths" unicode="&#x215c;" horiz-adv-x="730" 
d="M119 -5l470 641h68l-469 -641h-69zM141 374q-51 0 -78.5 23.5t-27.5 51.5q0 32 33 32q10 0 17 -5t9 -10t5 -16.5t4 -13.5q11 -30 36 -30q22 0 34 16t12 36q0 25 -20.5 31.5t-46.5 -6.5l-14 27l16 6q42 15 42 54q0 15 -8.5 24t-20.5 9q-17 0 -24 -18.5t-1 -40.5
q-29 -22 -47.5 -11.5t-18.5 35.5q0 28 25.5 46.5t73.5 18.5q45 0 69.5 -18.5t24.5 -46.5q0 -17 -9 -28t-36 -25q30 -1 47 -19.5t17 -43.5q0 -36 -32.5 -57t-80.5 -21zM575 -5q-50 0 -78 20t-28 54q0 25 15 40.5t36 18.5q-37 23 -37 58q0 30 25.5 49t70.5 19q43 0 68.5 -17.5
t25.5 -45.5q0 -21 -12.5 -34.5t-28.5 -17.5q23 -3 40.5 -22t17.5 -44q0 -32 -30 -55t-85 -23zM584 161q15 -1 21.5 7.5t6.5 22.5q0 34 -33 34q-32 0 -32 -33q0 -28 37 -31zM575 25q18 0 29 10.5t11 26.5q0 35 -35 43l-8 2q-23 6 -31 -6.5t-8 -29.5q0 -21 12 -33.5t30 -12.5z
" />
    <glyph glyph-name="fiveeighths" unicode="&#x215d;" horiz-adv-x="732" 
d="M126 -5l470 641h68l-469 -641h-69zM141 368q-51 0 -78.5 23.5t-27.5 51.5q0 30 33 30q10 0 17 -5t9 -9.5t5 -15.5t4 -13q11 -30 36 -30q22 0 34 16t12 36q0 27 -16 41.5t-42 14.5q-33 0 -40 -16h-40l10 129h144l27 5l-10 -59h-112l-4 -40q26 19 58 19q39 0 66.5 -23.5
t27.5 -64.5q0 -40 -33 -65t-80 -25zM583 -5q-51 0 -79 20t-28 54q0 25 15 40.5t37 18.5q-38 23 -38 58q0 30 26 49t71 19q43 0 68 -17.5t25 -45.5q0 -21 -12 -34.5t-28 -17.5q23 -3 40 -22t17 -44q0 -32 -30 -55t-84 -23zM592 161q15 -1 21.5 7.5t6.5 22.5q0 34 -33 34
q-32 0 -32 -33q0 -28 37 -31zM583 25q17 0 28 10.5t11 26.5q0 36 -34 43l-8 2q-14 2 -21.5 0t-12 -9.5t-5.5 -13.5t-1 -13q0 -21 12 -33.5t31 -12.5z" />
    <glyph glyph-name="seveneighths" unicode="&#x215e;" horiz-adv-x="697" 
d="M101 -5l470 641h68l-469 -641h-69zM61 379l132 188h-127l-31 -17l16 71h200l-115 -242h-75zM558 -5q-51 0 -79 20t-28 54q0 25 15 40.5t37 18.5q-38 23 -38 58q0 30 26 49t71 19q43 0 68 -17.5t25 -45.5q0 -21 -12 -34.5t-28 -17.5q23 -3 40 -22t17 -44q0 -32 -30 -55
t-84 -23zM567 161q15 -1 21.5 7.5t6.5 22.5q0 34 -33 34q-32 0 -32 -33q0 -28 37 -31zM558 25q18 0 28.5 10.5t10.5 26.5q0 36 -34 43l-8 2q-13 2 -21 0t-12.5 -9.5t-5.5 -13.5t-1 -13q0 -21 12 -33.5t31 -12.5z" />
    <glyph glyph-name="partialdiff" unicode="&#x2202;" horiz-adv-x="578" 
d="M283 -10q-107 0 -177.5 57t-70.5 160q0 100 63.5 151t147.5 51q29 0 56 -7.5t42 -15t32 -18.5t19 -12q0 231 -159 231q-36 0 -94 -26l-24 36q51 40 141 40q135 0 211.5 -94.5t77.5 -242.5q1 -144 -68 -227t-197 -83zM279 35q44 0 72 30t37 65.5t9 75.5q0 61 -25.5 101.5
t-79.5 40.5q-53 0 -82 -46t-29 -119q0 -38 7 -68.5t30.5 -55t60.5 -24.5z" />
    <glyph glyph-name="emptyset" unicode="&#x2205;" horiz-adv-x="563" 
d="M448 405q80 -65 80 -181q0 -113 -72.5 -171.5t-172.5 -58.5q-80 0 -142 37l-27 -32l-23 20l25 30q-81 66 -81 181q0 77 37 130.5t91 76.5t117 23q82 0 143 -38l24 29l23 -20zM196 276q0 -59 13 -114l136 165q-32 88 -80 88q-69 0 -69 -139zM298 40q69 0 69 138
q0 62 -12 113l-136 -165q14 -40 34.5 -63t44.5 -23z" />
    <glyph glyph-name="product" unicode="&#x220f;" horiz-adv-x="579" 
d="M50 -200v1000h479v-1000h-48v952h-383v-952h-48z" />
    <glyph glyph-name="summation" unicode="&#x2211;" horiz-adv-x="530" 
d="M480 800v-48h-364l318 -453l-318 -451h364v-48h-430v48l316 452l-316 452v48h430z" />
    <glyph glyph-name="minus" unicode="&#x2212;" horiz-adv-x="470" 
d="M50 227v49h370v-49h-370z" />
    <glyph glyph-name="radical" unicode="&#x221a;" horiz-adv-x="812" 
d="M246 -200l-137 336q-4 10 -8.5 18.5t-7.5 14t-9.5 11t-8.5 8t-12 6.5t-12 5t-15 6t-16 6v40l220 -2l114 -290l312 841h126v-40q-57 -12 -70 -25.5t-37 -74.5l-327 -860h-112z" />
    <glyph glyph-name="infinity" unicode="&#x221e;" horiz-adv-x="729" 
d="M233 30q-76 0 -129.5 65t-53.5 160q0 86 48.5 143t112.5 57q78 0 135 -88q64 90 152 90q76 0 128.5 -65t52.5 -160q0 -86 -47.5 -143t-112.5 -57q-79 0 -134 88q-62 -90 -152 -90zM190 147q61 0 92 81l35 93q-44 53 -102 53q-46 0 -79.5 -30.5t-33.5 -89.5q0 -53 25 -80
t63 -27zM515 113q47 0 80 30t33 90q0 53 -25 80t-62 27q-61 0 -93 -83l-34 -91q22 -26 50 -39.5t51 -13.5z" />
    <glyph glyph-name="integral" unicode="&#x222b;" horiz-adv-x="503" 
d="M80 -217q-67 0 -118.5 29t-51.5 79q0 29 18.5 49t52.5 20q36 0 52.5 -20.5t18 -44.5t11 -44.5t32.5 -20.5q42 0 42 94v552q0 91 59.5 143.5t147.5 52.5q67 0 118 -29t51 -79q0 -29 -18.5 -49t-52.5 -20q-36 0 -52.5 20.5t-17.5 44.5t-10.5 44.5t-32.5 20.5q-42 0 -42 -94
v-552q0 -91 -59.5 -143.5t-147.5 -52.5z" />
    <glyph glyph-name="approxequal" unicode="&#x2248;" horiz-adv-x="556" 
d="M372 263q-50 0 -122.5 35.5t-100.5 35.5q-22 0 -38 -12t-16 -33h-45q0 60 35 93t100 33q50 0 123 -35.5t100 -35.5q54 0 54 45h45q0 -60 -35 -93t-100 -33zM372 93q-50 0 -122.5 35.5t-100.5 35.5q-22 0 -38 -12t-16 -33h-45q0 60 35 93t100 33q50 0 123 -35.5t100 -35.5
q54 0 54 45h45q0 -60 -35 -93t-100 -33z" />
    <glyph glyph-name="notequal" unicode="&#x2260;" horiz-adv-x="470" 
d="M420 317h-133l-55 -131h188v-49h-208l-57 -136h-55l57 136h-107v49h127l55 131h-182v49h202l55 131h55l-55 -131h113v-49z" />
    <glyph glyph-name="lessequal" unicode="&#x2264;" horiz-adv-x="480" 
d="M430 142l-380 156v69l380 155v-50l-335 -140l335 -139v-51zM430 0h-370v48h370v-48z" />
    <glyph glyph-name="greaterequal" unicode="&#x2265;" horiz-adv-x="480" 
d="M50 142v51l335 139l-335 140v50l380 -155v-69zM50 0v48h370v-48h-370z" />
    <glyph glyph-name="lozenge" unicode="&#x25ca;" horiz-adv-x="412" 
d="M177 0l-142 310l142 311h58l142 -311l-142 -310h-58zM206 91l96 219l-96 219l-96 -219z" />
    <glyph glyph-name="i.loclTRK" 
d="M151 498q-36 0 -61.5 24.5t-25.5 59.5q0 37 25.5 62t61.5 25t60.5 -25t24.5 -62q0 -35 -25 -59.5t-60 -24.5zM24 0v39q36 2 50 17t14 55v229q0 33 -16 44t-47 8v39l163 27q50 7 50 -40v-307q0 -40 13.5 -55t48.5 -17v-39h-276z" />
    <glyph glyph-name="e.001" horiz-adv-x="526" 
d="M279 -6q-102 0 -175.5 59t-73.5 170q0 78 40 133.5t97 79.5t122 24q83 0 141.5 -41.5t58.5 -112.5q0 -21 -5 -36.5t-17.5 -25.5t-23.5 -16t-33 -9.5t-34.5 -4.5t-39.5 -2l-109 -5q-30 -2 -25 -38q5 -44 48.5 -70.5t95.5 -26.5q70 0 115 51l30 -27q-18 -36 -75 -69
t-137 -33zM227 248l26 1q55 2 78 19t23 48q0 38 -23 68t-60 30q-39 0 -58 -34t-20 -82q0 -26 7.5 -38t26.5 -12z" />
    <glyph glyph-name="f.001" horiz-adv-x="453" 
d="M27 0v40q39 3 54 17t15 50v263q0 18 -7 25t-24 7h-45v34q76 2 76 37v6q0 92 59 147.5t150 55.5q67 0 112.5 -29t45.5 -81q0 -30 -15.5 -49t-48.5 -19q-34 0 -50.5 21t-18.5 47t-11.5 47t-31.5 21q-27 0 -34 -31t-7 -100v-30q0 -28 32 -28h94v-49h-94q-17 0 -24.5 -6.5
t-7.5 -25.5v-263q0 -36 15 -50t56 -17v-40h-290z" />
    <glyph glyph-name="s.ss01" horiz-adv-x="471" 
d="M231 -6q-81 0 -141 32.5t-60 87.5q0 59 59 59q30 0 45 -15t15 -37q0 -39 28 -60.5t64 -21.5q35 0 50 20.5t15 44.5t-19.5 37.5t-71.5 28.5q-35 10 -61 21t-53.5 29t-42.5 44t-15 58q0 65 55.5 101.5t136.5 36.5q43 0 82 -9.5t69 -35t30 -63.5q0 -48 -56 -48
q-26 0 -39.5 11.5t-13.5 25.5q0 33 -20 53.5t-55 20.5q-28 0 -43 -14t-15 -34q0 -46 77 -67q2 -1 25 -7t28.5 -8.5t27 -9.5t29 -12t24 -14.5t23.5 -19t16.5 -22.5t13 -28.5t3.5 -33.5q0 -75 -61.5 -113t-148.5 -38z" />
    <glyph glyph-name="f_b" horiz-adv-x="997" 
d="M485 -6q-11 0 -17.5 7t-6.5 18v427q0 80 -35.5 139.5t-98.5 59.5q-74 0 -74 -106v-60q0 -20 12.5 -26.5t51.5 -6.5h69v-51l-69 2q-39 1 -51.5 -7t-12.5 -35v-248q0 -38 18 -52t71 -16v-39h-310v39q41 2 56 16.5t15 51.5v250q0 24 -6.5 32t-24.5 8h-52v32q44 6 63.5 15.5
t19.5 32.5v7q0 92 71.5 145t183.5 53q36 0 69.5 -5t68 -19.5t59 -37t40.5 -60t16 -85.5v-45q0 -9 4 -13t9.5 -2.5t11.5 6.5q43 39 127 39q85 0 144.5 -60t59.5 -167q0 -111 -65.5 -175t-154.5 -64q-50 0 -107 26.5t-69 26.5q-18 0 -45 -26.5t-41 -26.5zM723 39q84 0 84 146
q0 84 -28 139t-78 55q-38 0 -64 -32.5t-26 -110.5v-59q0 -72 35.5 -105t76.5 -33z" />
    <glyph glyph-name="f_h" horiz-adv-x="999" 
d="M887 -6q-49 0 -79.5 28t-30.5 82v162q0 46 -22 77.5t-61 31.5q-40 0 -61.5 -31t-21.5 -78v-155q0 -40 13.5 -55t48.5 -17v-39h-276v39q36 2 50 17t14 55v335q0 80 -35.5 139.5t-98.5 59.5q-74 0 -74 -106v-60q0 -20 12.5 -26.5t51.5 -6.5h69v-51l-69 2q-39 1 -51.5 -7
t-12.5 -35v-248q0 -38 18 -52t71 -16v-39h-310v39q41 2 56 16.5t15 51.5v250q0 24 -6.5 32t-24.5 8h-52v32q44 6 63.5 15.5t19.5 32.5v7q0 92 71.5 145t183.5 53q36 0 69.5 -5t68 -19.5t59 -37t40.5 -60t16 -85.5v-49q0 -16 6 -24.5t14 -8t14 8.5q49 62 138 62
q144 0 144 -175v-187q0 -26 10.5 -39t31.5 -4v-22q-18 -43 -82 -43z" />
    <glyph glyph-name="f_j" horiz-adv-x="688" 
d="M32 0v39q41 2 56 16.5t15 51.5v250q0 24 -6.5 32t-24.5 8h-52v32q44 6 63.5 15.5t19.5 32.5q0 96 63.5 150.5t165.5 54.5q69 0 120 -25.5t51 -71.5q0 -26 -16 -45t-53 -19q-34 0 -57.5 19.5t-33 42.5t-24.5 42.5t-35 19.5t-25.5 -21t-5.5 -82v-63q0 -20 12.5 -26.5
t51.5 -6.5h69v-51l-69 2q-39 1 -51.5 -7t-12.5 -35v-248q0 -38 18 -52t71 -16v-39h-310zM430 -202q-55 0 -97.5 22t-42.5 68q0 30 17.5 48t44.5 18q35 0 54 -17t21.5 -38t6.5 -38t13 -17q12 0 19 16t7 36v444q0 33 -16 44t-47 8v39l163 27q50 7 50 -40v-454q0 -80 -56 -123
t-137 -43z" />
    <glyph glyph-name="f_k" horiz-adv-x="990" 
d="M32 0v39q41 2 56 16.5t15 51.5v250q0 24 -6.5 32t-24.5 8h-52v32q44 6 63.5 15.5t19.5 32.5v7q0 92 71.5 145t183.5 53q36 0 69.5 -5t68 -19.5t59 -37t40.5 -60t16 -85.5v-179q0 -24 15 -33t29 4l99 83q11 9 12 23t-12.5 26t-39.5 14v38h238v-38q-36 -3 -64 -18.5
t-66 -48.5l-60 -51l131 -197q34 -53 97 -59v-39h-290v39q16 2 22.5 12.5t4.5 22t-9 20.5l-42 74q-18 27 -25 29q-5 1 -10 -4q-20 -18 -25 -27t-5 -34v-21q0 -40 13.5 -55t48.5 -17v-39h-276v39q36 2 50 17t14 55v335q0 80 -35.5 139.5t-98.5 59.5q-74 0 -74 -106v-60
q0 -20 12.5 -26.5t51.5 -6.5h69v-51l-69 2q-39 1 -51.5 -7t-12.5 -35v-248q0 -38 18 -52t71 -16v-39h-310z" />
    <glyph glyph-name="zero.osf" horiz-adv-x="553" 
d="M278 -6q-101 0 -174.5 61t-73.5 175q0 77 37 130.5t91 76.5t117 23q102 0 175 -61t73 -175q0 -113 -72.5 -171.5t-172.5 -58.5zM293 40q69 0 69 138q0 97 -29 167t-73 70q-69 0 -69 -139q0 -97 29.5 -166.5t72.5 -69.5z" />
    <glyph glyph-name="one.osf" horiz-adv-x="372" 
d="M32 0v44q46 2 63.5 16.5t17.5 50.5v183q0 25 -8 34t-29 8l-46 -3v45l182 78q17 7 34 1.5t17 -17.5v-329q0 -36 17.5 -50.5t61.5 -16.5v-44h-310z" />
    <glyph glyph-name="two.osf" horiz-adv-x="558" 
d="M40 0q42 40 88 83t72.5 67t54.5 51t42 42.5t26.5 33t17 31t4.5 28.5q0 76 -76 76q-30 0 -50 -14.5t-20 -42.5q0 -17 7 -41t7 -37q0 -32 -25 -51t-58 -19q-37 0 -60.5 26t-23.5 67q0 71 67.5 115.5t177.5 44.5q101 0 152.5 -39t51.5 -95q0 -31 -17.5 -60t-43.5 -50
t-60.5 -41t-63 -31.5t-57.5 -23.5t-37 -16l111 2q63 1 83.5 13t63.5 66h44l-13 -54q-22 -96 -11 -131h-454z" />
    <glyph glyph-name="three.osf" horiz-adv-x="613" 
d="M294 -187q-108 0 -183.5 45.5t-75.5 125.5q0 39 20.5 58.5t52.5 19.5q29 0 45.5 -11t20 -24t7 -36.5t7.5 -35.5q8 -20 19 -38.5t37.5 -38.5t58.5 -20q56 0 85.5 50t29.5 110q0 55 -27.5 89t-72.5 34q-36 0 -63 -19l-15 40q82 28 110.5 60t28.5 86q0 106 -97 106
q-48 0 -63 -26.5t-15 -74.5q0 -33 -18.5 -52t-52.5 -19q-32 0 -48.5 21.5t-16.5 50.5q0 55 56 100.5t173 45.5q108 0 164.5 -40t56.5 -105q0 -48 -29.5 -77.5t-71.5 -39.5q57 1 106.5 -41.5t49.5 -121.5q0 -99 -80.5 -160.5t-198.5 -61.5z" />
    <glyph glyph-name="four.osf" horiz-adv-x="603" 
d="M228 -167v44q46 2 63.5 16.5t17.5 50.5v56h-263l-21 76l288 394l146 -16v-343h104v-111h-104v-56q0 -36 17.5 -50.5t61.5 -16.5v-44h-310zM149 111h160v278l-178 -243q-10 -14 -4.5 -24.5t22.5 -10.5z" />
    <glyph glyph-name="five.osf" horiz-adv-x="590" 
d="M290 -180q-105 0 -180 45.5t-75 123.5q0 40 20.5 60t52.5 20q29 0 45.5 -11t20 -24t7 -36.5t7.5 -35.5q35 -97 110 -97q95 0 95 162q0 82 -36.5 132t-97.5 50q-38 0 -76.5 -20t-60.5 -59h-36l24 325h300l82 14l-15 -147h-332l-8 -117q65 53 173 53q35 0 68 -6.5t66 -21.5
t57 -38.5t39 -60t15 -82.5q0 -111 -73 -170t-192 -59z" />
    <glyph glyph-name="six.osf" horiz-adv-x="578" 
d="M300 -10q-128 0 -197 83t-68 227q1 148 77.5 242.5t211.5 94.5q92 0 141 -40l-23 -36q-58 26 -95 26q-159 0 -159 -231q2 1 19.5 12t32 18.5t42 15t56.5 7.5q52 0 98 -19.5t79 -67t33 -115.5q0 -103 -70.5 -160t-177.5 -57zM304 35q37 0 60.5 24.5t30.5 55t7 68.5
q0 74 -29 119.5t-82 45.5q-54 0 -79.5 -40.5t-25.5 -101.5q0 -40 9 -75.5t37 -65.5t72 -30z" />
    <glyph glyph-name="seven.osf" horiz-adv-x="557" 
d="M123 -170l300 489h-166q-79 0 -114.5 -13t-71.5 -47h-36l66 200l88 -8h343l-319 -621h-90z" />
    <glyph glyph-name="eight.osf" horiz-adv-x="600" 
d="M291 -10q-116 0 -186 47t-70 130q0 100 118 144q-81 65 -81 147q0 88 69.5 133.5t161.5 45.5q86 0 151 -38t65 -112q0 -101 -115 -135q161 -51 161 -172q0 -90 -77 -140t-197 -50zM312 387q52 -18 74.5 10t22.5 76q0 20 -4 38t-14.5 37.5t-32 31.5t-52.5 12
q-48 0 -69 -28t-21 -65q0 -78 87 -108zM303 35q61 0 84.5 32.5t23.5 73.5q0 32 -21 57.5t-88 50.5l-28 10q-28 10 -49 11.5t-33 -6t-19.5 -15.5t-10 -23t-3 -22t-0.5 -19v-4q0 -58 36 -102t108 -44z" />
    <glyph glyph-name="nine.osf" horiz-adv-x="578" 
d="M278 458q128 0 197 -83t68 -227q-1 -148 -77.5 -242.5t-211.5 -94.5q-90 0 -141 40l24 36q58 -26 94 -26q159 0 159 231q-2 -1 -19 -12t-32 -18.5t-42 -15t-56 -7.5q-84 0 -147.5 51t-63.5 151q0 103 70.5 160t177.5 57zM274 413q-37 0 -60.5 -24.5t-30.5 -55t-7 -68.5
q0 -73 29 -119t82 -46q54 0 79.5 40.5t25.5 101.5q0 40 -9 75.5t-37 65.5t-72 30z" />
    <glyph glyph-name="zero.tf" horiz-adv-x="600" 
d="M300 -10q-128 0 -205.5 93.5t-77.5 230.5q0 136 77.5 229.5t205.5 93.5t205.5 -93.5t77.5 -229.5q0 -137 -77.5 -230.5t-205.5 -93.5zM309 45q116 0 116 243q0 81 -12.5 144.5t-44 106.5t-79.5 43q-115 0 -115 -244q0 -80 12.5 -143t43.5 -106.5t79 -43.5z" />
    <glyph glyph-name="one.tf" horiz-adv-x="600" 
d="M136 0v44q53 2 72 16.5t19 50.5v355q0 23 -8 31t-29 6l-48 -3v44l184 81q17 7 34 1.5t17 -17.5v-498q0 -36 19 -50.5t70 -16.5v-44h-330z" />
    <glyph glyph-name="two.tf" horiz-adv-x="600" 
d="M47 0q0 70 34.5 132t83.5 106t97.5 83.5t83 84t34.5 89.5q0 38 -21 66.5t-63 28.5q-38 0 -61 -25t-23 -66q0 -15 6.5 -39.5t6.5 -38.5q0 -31 -23.5 -47t-54.5 -16q-42 0 -67.5 27.5t-25.5 75.5q0 81 70.5 128.5t181.5 47.5q106 0 173.5 -45t67.5 -129q0 -54 -32 -95
t-84 -69t-106.5 -52t-110.5 -57t-85 -70h217q80 0 117.5 14t47.5 53h44l-18 -124q-7 -47 5 -63h-495z" />
    <glyph glyph-name="three.tf" horiz-adv-x="600" 
d="M290 -10q-108 0 -183.5 45.5t-75.5 125.5q0 39 20.5 58.5t52.5 19.5q29 0 45.5 -11t20 -24t7 -36.5t7.5 -35.5q8 -20 19 -38.5t37.5 -38.5t58.5 -20q56 0 85.5 50t29.5 110q0 55 -27.5 89t-72.5 34q-36 0 -63 -19l-15 40q82 28 110.5 60t28.5 86q0 106 -97 106
q-48 0 -63.5 -26.5t-15.5 -74.5q0 -33 -18 -52t-52 -19q-32 0 -48.5 21.5t-16.5 50.5q0 55 56 100.5t173 45.5q108 0 164.5 -40t56.5 -105q0 -48 -29.5 -77.5t-71.5 -39.5q57 1 106.5 -41.5t49.5 -121.5q0 -99 -80.5 -160.5t-198.5 -61.5z" />
    <glyph glyph-name="four.tf" horiz-adv-x="600" 
d="M234 0v44q46 2 63.5 16.5t17.5 50.5v56h-262l-21 76l288 394l145 -16v-343h105v-111h-105v-56q0 -36 17.5 -50.5t61.5 -16.5v-44h-310zM156 278h159v278l-178 -243q-10 -14 -4.5 -24.5t23.5 -10.5z" />
    <glyph glyph-name="five.tf" horiz-adv-x="600" 
d="M295 -12q-105 0 -180 45.5t-75 123.5q0 40 20 60t53 20q29 0 45.5 -11t19.5 -24t6.5 -36.5t7.5 -35.5q7 -17 12.5 -28t18.5 -29.5t33.5 -28.5t46.5 -10q94 0 94 161q0 82 -36 132t-98 50q-37 0 -75.5 -20t-60.5 -59h-36l24 325h299l83 14l-15 -146h-332l-8 -118
q65 53 173 53q45 0 85.5 -11t77.5 -33.5t59 -65t22 -99.5q0 -111 -72.5 -170t-191.5 -59z" />
    <glyph glyph-name="six.tf" horiz-adv-x="600" 
d="M308 -10q-128 0 -197 83t-68 227q1 148 77.5 242.5t211.5 94.5q90 0 141 -40l-23 -36q-58 26 -95 26q-159 0 -159 -231q2 1 19.5 12t32 18.5t42 15t56.5 7.5q52 0 98 -19.5t79 -67t33 -115.5q0 -103 -70.5 -160t-177.5 -57zM312 35q37 0 60.5 24.5t30.5 55t7 68.5
q0 74 -29 119.5t-82 45.5q-54 0 -79.5 -40.5t-25.5 -101.5q0 -40 9 -75.5t37 -65.5t72 -30z" />
    <glyph glyph-name="seven.tf" horiz-adv-x="600" 
d="M140 0l299 489h-165q-80 0 -115 -13t-71 -47h-36l66 200l88 -8h343l-319 -621h-90z" />
    <glyph glyph-name="eight.tf" horiz-adv-x="600" 
d="M291 -10q-116 0 -186 47t-70 130q0 100 118 144q-81 65 -81 147q0 88 69.5 133.5t161.5 45.5q54 0 101 -14.5t81 -50t34 -85.5q0 -100 -115 -135q161 -51 161 -172q0 -90 -77 -140t-197 -50zM312 387q52 -18 74 10t22 76q0 28 -6.5 52t-31 45.5t-64.5 21.5q-48 0 -69 -28
t-21 -65q0 -78 87 -108zM303 35q61 0 84.5 32.5t23.5 73.5q0 32 -21 57.5t-88 50.5l-28 10q-28 10 -49.5 11.5t-33.5 -6t-19.5 -15.5t-10 -23t-3 -22t-0.5 -19v-4q0 -58 36 -102t109 -44z" />
    <glyph glyph-name="nine.tf" horiz-adv-x="600" 
d="M292 634q128 0 197 -83t68 -227q-1 -148 -77.5 -242.5t-211.5 -94.5q-90 0 -141 40l23 36q58 -26 95 -26q159 0 159 231q-2 -1 -19 -12t-32 -18.5t-42.5 -15t-56.5 -7.5q-52 0 -98 19.5t-79 67t-33 115.5q0 103 70.5 160t177.5 57zM288 589q-37 0 -60.5 -24.5t-30.5 -55
t-7 -68.5q0 -73 29 -119t82 -46q54 0 79.5 40.5t25.5 101.5q0 40 -9 75.5t-37 65.5t-72 30z" />
    <glyph glyph-name="zero.dnom" horiz-adv-x="295" 
d="M147 -5q-49 0 -80.5 35.5t-31.5 96.5q0 60 31.5 93.5t80.5 33.5q50 0 81.5 -33.5t31.5 -93.5q0 -61 -32 -96.5t-81 -35.5zM151 25q36 0 36 90q0 109 -44 109q-36 0 -36 -89q0 -45 10.5 -77.5t33.5 -32.5z" />
    <glyph glyph-name="one.dnom" horiz-adv-x="195" 
d="M32 0v30q24 1 28.5 8t4.5 28v114h-35v31l74 38q12 5 21.5 -0.5t9.5 -14.5v-168q0 -14 1.5 -20.5t8 -10.5t20.5 -5v-30h-133z" />
    <glyph glyph-name="two.dnom" horiz-adv-x="309" 
d="M40 0q6 76 78 114q39 21 52.5 36.5t13.5 34.5q0 18 -9 28.5t-22 10.5q-28 0 -28 -30q0 -5 2 -19t0 -16q-14 -26 -44.5 -18t-30.5 42q0 30 26 50.5t79 20.5q48 0 73 -21.5t25 -54.5q0 -62 -85 -94q-79 -32 -87 -37h102q16 0 26 3.5t14 7.5t11 14h33l-10 -58
q-3 -14 -21 -14h-198z" />
    <glyph glyph-name="three.dnom" horiz-adv-x="294" 
d="M141 -5q-51 0 -78.5 23.5t-27.5 51.5q0 32 33 32q10 0 17 -5t9 -10t5 -16.5t4 -13.5q11 -30 36 -30q22 0 34 16t12 36q0 25 -20.5 31.5t-46.5 -6.5l-14 27l16 6q42 15 42 54q0 15 -8.5 24t-20.5 9q-17 0 -24 -18.5t-1 -40.5q-29 -22 -47.5 -11.5t-18.5 35.5
q0 28 25.5 46.5t73.5 18.5q45 0 69.5 -18.5t24.5 -46.5q0 -17 -9 -28t-36 -25q30 -1 47 -19.5t17 -43.5q0 -36 -32.5 -57t-80.5 -21z" />
    <glyph glyph-name="four.dnom" horiz-adv-x="270" 
d="M80 0v30q26 2 33 7.5t7 23.5v9h-95v39l123 144l45 -9v-144h37v-30h-37v-9q0 -18 6.5 -23.5t30.5 -7.5v-30h-150zM64 100h56v64z" />
    <glyph glyph-name="five.dnom" horiz-adv-x="289" 
d="M141 -17q-51 0 -78.5 23.5t-27.5 51.5q0 30 33 30q10 0 17 -5t9 -9.5t5 -15.5t4 -13q11 -30 36 -30q22 0 34 16t12 36q0 27 -16 42t-42 15q-33 0 -40 -16h-40l10 128h144l27 5l-10 -58h-112l-4 -41q26 19 58 19q39 0 66.5 -23.5t27.5 -64.5q0 -40 -33 -65t-80 -25z" />
    <glyph glyph-name="six.dnom" horiz-adv-x="276" 
d="M145 -5q-58 0 -84 33t-26 83q0 56 31 99.5t93 43.5q38 0 63 -17q8 -6 -4 -29q-7 -6 -10.5 -3.5t-17.5 9t-28 6.5q-18 0 -28 -10.5t-13 -22t-7 -37.5q16 15 45 15q35 0 61 -22t26 -60q0 -37 -26 -62.5t-75 -25.5zM149 27q24 0 24 44q0 66 -35 66q-25 0 -25 -44
q0 -66 36 -66z" />
    <glyph glyph-name="seven.dnom" horiz-adv-x="276" 
d="M61 0l132 188h-127l-31 -17l16 71h200l-115 -242h-75z" />
    <glyph glyph-name="eight.dnom" horiz-adv-x="291" 
d="M142 -5q-51 0 -79 20t-28 54q0 25 15 40.5t37 18.5q-38 23 -38 58q0 30 26 49t71 19q43 0 68 -17.5t25 -45.5q0 -21 -12 -34.5t-28 -17.5q23 -3 40 -22t17 -44q0 -32 -30 -55t-84 -23zM151 161q15 -1 21.5 7.5t6.5 22.5q0 34 -33 34q-32 0 -32 -33q0 -28 37 -31zM142 25
q18 0 28.5 10.5t10.5 26.5q0 36 -34 43l-8 2q-13 2 -21 0t-12.5 -9.5t-5.5 -13.5t-1 -13q0 -21 12 -33.5t31 -12.5z" />
    <glyph glyph-name="nine.dnom" horiz-adv-x="276" 
d="M131 254q58 0 84 -33t26 -83q0 -56 -31 -99.5t-93 -43.5q-39 0 -64 17q-8 6 4 29q7 6 10.5 3.5t18 -9t28.5 -6.5q18 0 28 11t12.5 21.5t6.5 37.5q-17 -15 -44 -15q-35 0 -61 22t-26 60q0 37 25.5 62.5t75.5 25.5zM127 222q-25 0 -25 -44q0 -66 36 -66q24 0 24 44
q0 66 -35 66z" />
    <glyph glyph-name="zero.numr" horiz-adv-x="295" 
d="M147 374q-49 0 -80.5 35.5t-31.5 96.5q0 60 31.5 93.5t80.5 33.5q50 0 81.5 -33.5t31.5 -93.5q0 -61 -32 -96.5t-81 -35.5zM151 404q36 0 36 90q0 109 -44 109q-36 0 -36 -89q0 -45 10.5 -77.5t33.5 -32.5z" />
    <glyph glyph-name="one.numr" horiz-adv-x="195" 
d="M32 379v30q24 1 28.5 8t4.5 28v114h-35v31l74 38q12 5 21.5 -0.5t9.5 -14.5v-168q0 -14 1.5 -20.5t8 -10.5t20.5 -5v-30h-133z" />
    <glyph glyph-name="two.numr" horiz-adv-x="309" 
d="M40 379q6 76 78 114q39 21 52.5 36.5t13.5 34.5q0 18 -9 28.5t-22 10.5q-28 0 -28 -30q0 -5 2 -19t0 -16q-14 -26 -44.5 -18t-30.5 42q0 30 26 50.5t79 20.5q48 0 73 -21.5t25 -54.5q0 -62 -85 -94q-79 -32 -87 -37h102q16 0 26 3.5t14 7.5t11 14h33l-10 -58
q-3 -14 -21 -14h-198z" />
    <glyph glyph-name="three.numr" horiz-adv-x="294" 
d="M141 374q-51 0 -78.5 23.5t-27.5 51.5q0 32 33 32q10 0 17 -5t9 -10t5 -16.5t4 -13.5q11 -30 36 -30q22 0 34 16t12 36q0 25 -20.5 31.5t-46.5 -6.5l-14 27l16 6q42 15 42 54q0 15 -8.5 24t-20.5 9q-17 0 -24 -18.5t-1 -40.5q-29 -22 -47.5 -11.5t-18.5 35.5
q0 28 25.5 46.5t73.5 18.5q45 0 69.5 -18.5t24.5 -46.5q0 -17 -9 -28t-36 -25q30 -1 47 -19.5t17 -43.5q0 -36 -32.5 -57t-80.5 -21z" />
    <glyph glyph-name="four.numr" horiz-adv-x="270" 
d="M80 379v30q26 2 33 7.5t7 23.5v9h-95v39l123 144l45 -9v-144h37v-30h-37v-9q0 -18 6.5 -23.5t30.5 -7.5v-30h-150zM64 479h56v64z" />
    <glyph glyph-name="five.numr" horiz-adv-x="289" 
d="M141 368q-51 0 -78.5 23.5t-27.5 51.5q0 30 33 30q10 0 17 -5t9 -9.5t5 -15.5t4 -13q11 -30 36 -30q22 0 34 16t12 36q0 27 -16 41.5t-42 14.5q-33 0 -40 -16h-40l10 129h144l27 5l-10 -59h-112l-4 -40q26 19 58 19q39 0 66.5 -23.5t27.5 -64.5q0 -40 -33 -65t-80 -25z
" />
    <glyph glyph-name="six.numr" horiz-adv-x="276" 
d="M145 368q-58 0 -84 33t-26 83q0 56 31 99.5t93 43.5q38 0 63 -17q8 -6 -4 -29q-7 -6 -10.5 -3.5t-17.5 9t-28 6.5q-18 0 -28 -10.5t-13 -22t-7 -37.5q16 15 45 15q35 0 61 -22t26 -60q0 -37 -26 -62.5t-75 -25.5zM149 400q24 0 24 44q0 66 -35 66q-25 0 -25 -44
q0 -66 36 -66z" />
    <glyph glyph-name="seven.numr" horiz-adv-x="276" 
d="M61 379l132 188h-127l-31 -17l16 71h200l-115 -242h-75z" />
    <glyph glyph-name="eight.numr" horiz-adv-x="291" 
d="M142 374q-51 0 -79 20t-28 54q0 25 15 40.5t37 18.5q-38 23 -38 58q0 30 26 49t71 19q43 0 68 -17.5t25 -45.5q0 -21 -12 -34.5t-28 -17.5q23 -3 40 -22t17 -44q0 -32 -30 -55t-84 -23zM151 540q15 -1 21.5 7.5t6.5 22.5q0 34 -33 34q-32 0 -32 -33q0 -28 37 -31z
M142 404q18 0 28.5 11t10.5 26q0 36 -34 43l-8 2q-13 2 -21 0t-12.5 -9.5t-5.5 -13.5t-1 -13q0 -21 12 -33.5t31 -12.5z" />
    <glyph glyph-name="nine.numr" horiz-adv-x="276" 
d="M131 633q58 0 84 -33t26 -83q0 -56 -31 -99.5t-93 -43.5q-39 0 -64 17q-8 6 4 29q7 6 10.5 3.5t18 -9t28.5 -6.5q18 0 28 11t12.5 21.5t6.5 37.5q-16 -15 -44 -15q-35 0 -61 22t-26 60q0 37 25.5 62.5t75.5 25.5zM127 601q-25 0 -25 -44q0 -66 36 -66q24 0 24 44
q0 66 -35 66z" />
    </font>
</defs>
</svg>
