<?xml version="1.0" standalone="no"?>
<!DOCTYPE svg PUBLIC "-//W3C//DTD SVG 1.1//EN" "http://www.w3.org/Graphics/SVG/1.1/DTD/svg11.dtd" >
<svg xmlns="http://www.w3.org/2000/svg" xmlns:xlink="http://www.w3.org/1999/xlink" version="1.1">
<metadata>
Created by FontForge 20201107 at Sat May  2 10:58:43 2020
 By Unknown
Copyright (c) 2020 by Connary Fagen. All rights reserved.
</metadata>
<defs>
<font id="QuincyCF-Regular" horiz-adv-x="260" >
  <font-face 
    font-family="Quincy CF"
    font-weight="400"
    font-stretch="normal"
    units-per-em="1000"
    panose-1="0 0 5 0 0 0 0 0 0 0"
    ascent="773"
    descent="-227"
    x-height="451"
    cap-height="621"
    bbox="-229.8 -288 995 895"
    underline-thickness="50"
    underline-position="-150"
    unicode-range="U+0020-FB02"
  />
<missing-glyph horiz-adv-x="515" 
d="M422 800v-1030h-326v1030h326zM343 731h-170v-34h67v-38h-68v-34h171v34h-68v38h68v34zM275 598h-103v-107h171v35h-68v72zM240 563v-37h-34v37h34zM343 463h-171v-34h68v-38h-68v-34h103v72h68v34zM343 401h-34v-68h-137v-35h171v103zM343 276h-103v-58h35v24h34v-49
h-103v83h-34v-117h171v117zM343 98h-171v-117h171v117zM309 64v-49h-103v49h103zM343 -43h-171v-34h72l-72 -48v-34h171v34h-105l72 48h33v34z" />
    <glyph glyph-name="fi" unicode="fi" horiz-adv-x="581" 
d="M25 0v21q41 4 56 15t15 38v311q0 17 -5.5 23t-16.5 6h-54v22q42 7 59 17t17 33q0 97 47 146.5t130 49.5q59 0 94.5 -22t35.5 -56q0 -37 -39 -37q-19 0 -34.5 13.5t-25.5 29t-29 29t-45 13.5q-34 0 -44 -24t-10 -81v-70q0 -19 10 -25t42 -6h69v-34l-69 2q-32 1 -42 -5.5
t-10 -25.5v-309q0 -27 18 -38t71 -15v-21h-240zM348 0v21q36 4 50 15t14 38v282q0 36 -12.5 49t-52.5 9v19l110 25q35 8 35 -29v-355q0 -27 14 -38t50 -15v-21h-208z" />
    <glyph glyph-name="fl" unicode="fl" horiz-adv-x="553" 
d="M462 -6q-64 0 -64 71v397q0 91 -35.5 140.5t-103.5 49.5q-52 0 -67.5 -31t-15.5 -106v-38q0 -19 10 -25t42 -6h69v-34l-69 2q-32 1 -42 -5.5t-10 -25.5v-309q0 -27 18 -38t71 -15v-21h-240v21q41 4 56 15t15 38v311q0 17 -5.5 23t-16.5 6h-54v22q42 7 59 17t17 33v14
q0 88 54.5 135t139.5 47q84 0 136 -45.5t52 -145.5v-424q0 -43 51 -34v-12q-20 -27 -67 -27z" />
    <glyph glyph-name=".notdef" horiz-adv-x="515" 
d="M422 800v-1030h-326v1030h326zM343 731h-170v-34h67v-38h-68v-34h171v34h-68v38h68v34zM275 598h-103v-107h171v35h-68v72zM240 563v-37h-34v37h34zM343 463h-171v-34h68v-38h-68v-34h103v72h68v34zM343 401h-34v-68h-137v-35h171v103zM343 276h-103v-58h35v24h34v-49
h-103v83h-34v-117h171v117zM343 98h-171v-117h171v117zM309 64v-49h-103v49h103zM343 -43h-171v-34h72l-72 -48v-34h171v34h-105l72 48h33v34z" />
    <glyph glyph-name=".null" horiz-adv-x="0" 
 />
    <glyph glyph-name="nonmarkingreturn" horiz-adv-x="333" 
 />
    <glyph glyph-name="space" unicode=" " horiz-adv-x="185" 
 />
    <glyph glyph-name="exclam" unicode="!" horiz-adv-x="206" 
d="M89 183q-2 96 -23 218t-21 162q0 35 15 54.5t43 19.5q27 0 42.5 -20t15.5 -54q0 -40 -21.5 -162t-23.5 -218h-27zM103 -6q-22 0 -38 16t-16 39t16 39t38 16t38 -16.5t16 -38.5t-16 -38.5t-38 -16.5z" />
    <glyph glyph-name="quotedbl" unicode="&#x22;" 
d="M73 434q-12 0 -14 19l-23 163q-2 20 8 32t29 12t29 -12.5t7 -31.5l-22 -163q-3 -19 -14 -19zM187 434q-11 0 -14 19l-22 163q-2 20 7.5 32t28.5 12t29 -12t8 -32l-22 -163q-3 -19 -15 -19z" />
    <glyph glyph-name="numbersign" unicode="#" horiz-adv-x="521" 
d="M496 441h-115l-61 -240h107v-21h-113l-54 -210h-23l54 210h-134l-54 -210h-23l54 210h-109v21h115l61 240h-107v21h113l54 210h23l-54 -210h134l54 210h23l-54 -210h109v-21zM297 201l61 240h-134l-61 -240h134z" />
    <glyph glyph-name="dollar" unicode="$" horiz-adv-x="474" 
d="M439 212q0 -71 -57.5 -108.5t-141.5 -41.5v-62h-20v62q-88 1 -163 47q-18 46 -17 87.5t20 41.5q11 0 14 -11q18 -56 56.5 -91.5t89.5 -43.5v212l-5 2q-169 57 -169 170q0 62 46.5 103t127.5 45v65h20v-64h1q88 0 155 -40q18 -46 17 -87.5t-20 -41.5q-10 0 -14 11
q-19 56 -56 89.5t-83 40.5v-210l4 -1q29 -10 37.5 -13t36 -14t38.5 -18.5t31 -22t28.5 -28.5t16 -34.5t7.5 -43.5zM117 503q0 -42 26.5 -66t76.5 -43v205h-4q-50 0 -74.5 -28t-24.5 -68zM254 89q50 1 79 25t29 72q0 47 -30 70t-92 42v-209h14z" />
    <glyph glyph-name="percent" unicode="%" horiz-adv-x="634" 
d="M510 621h32l-404 -621h-77l432 597q-33 -26 -73 -31.5t-64.5 0.5t-69.5 20q20 -31 20 -71q0 -63 -47 -111t-107 -48q-48 0 -75 33t-27 80q0 63 47 111t107 48q46 0 91 -11.5t70.5 -20.5t63 -5t81.5 30zM173 380q33 0 49.5 35t16.5 88q0 100 -56 100q-33 0 -49.5 -35
t-16.5 -88q0 -100 56 -100zM482 262q48 0 75 -33t27 -81q0 -63 -47 -111t-107 -48q-48 0 -75 33t-27 80q0 63 47 111.5t107 48.5zM451 14q33 0 49.5 35t16.5 88q0 100 -56 100q-33 0 -49.5 -35t-16.5 -88q0 -100 56 -100z" />
    <glyph glyph-name="ampersand" unicode="&#x26;" horiz-adv-x="741" 
d="M319 -10q-117 0 -198 54.5t-81 144.5q0 75 58 125t112 50q-46 12 -76.5 48t-30.5 83q0 61 50 101.5t132 40.5q69 0 116 -29.5t47 -74.5q0 -22 -11.5 -35t-29.5 -13t-30.5 12.5t-12.5 35.5q0 35 -24.5 56t-57.5 21q-45 0 -69 -26.5t-24 -73.5q0 -57 33.5 -100t95.5 -61
l-10 -25q-78 15 -126 -27.5t-48 -111.5q0 -78 55 -123t136 -45q87 0 142.5 51.5t55.5 121.5q0 40 -20.5 64.5t-54.5 24.5q-38 0 -53.5 -24.5t4.5 -46.5h-24q-22 18 -22 47q0 5 1 10t4 10.5t5 9t7.5 9l8 8t10.5 8.5t10.5 8t12 8.5t12.5 8.5l110 73q47 32 66 54.5t19 56.5
q0 40 -29.5 59t-75.5 2l-9 19q39 22 79 22q46 0 81.5 -28.5t35.5 -79.5q0 -54 -45 -89.5t-176 -103.5q-22 -11 -33 -17q79 1 119.5 -34t41.5 -87q1 -81 -85.5 -136.5t-203.5 -55.5z" />
    <glyph glyph-name="quotesingle" unicode="'" horiz-adv-x="145" 
d="M73 434q-12 0 -14 19l-23 163q-2 20 8 32t29 12t29 -12.5t7 -31.5l-22 -163q-3 -19 -14 -19z" />
    <glyph glyph-name="parenleft" unicode="(" horiz-adv-x="309" 
d="M262 -166q-11 0 -19 7q-89 80 -143.5 199.5t-54.5 255.5t54.5 255.5t143.5 199.5q8 7 19 7h7q10 0 13.5 -4t-1.5 -9q-74 -72 -113.5 -190.5t-37.5 -258.5q-2 -138 36.5 -255t109.5 -189q5 -5 6 -9t-2 -6.5t-9 -2.5h-9z" />
    <glyph glyph-name="parenright" unicode=")" horiz-adv-x="309" 
d="M47 -166h-9q-9 0 -10.5 5t5.5 13q71 72 109.5 189t36.5 255q2 140 -37.5 258.5t-113.5 190.5q-5 5 -1.5 9t13.5 4h7q11 0 19 -7q89 -80 143.5 -199.5t54.5 -255.5t-54.5 -255.5t-143.5 -199.5q-8 -7 -19 -7z" />
    <glyph glyph-name="asterisk" unicode="*" horiz-adv-x="329" 
d="M154 520l-30 78q4 34 40 39q36 -5 40 -39l-31 -78q-2 -6 -5.5 -8.5t-7.5 0t-6 8.5zM123 489l-80 18q-27 20 -13 54q22 28 54 14l55 -67q7 -7 1 -14t-17 -5zM206 489q-11 -2 -17 5t1 14l55 67q31 13 54 -14q14 -33 -13 -54zM84 387q-32 -14 -54 14q-14 34 13 55l81 17
q10 2 15.5 -5t-1.5 -14zM245 387l-54 67q-7 7 -1.5 14t15.5 5l81 -17q26 -22 13 -55q-23 -27 -54 -14zM164 327q-36 5 -40 39l30 78q4 10 10 10t10 -10l30 -78q-4 -34 -40 -39z" />
    <glyph glyph-name="plus" unicode="+" horiz-adv-x="470" 
d="M420 265v-27h-171v-172h-27v172h-172v27h172v172h27v-172h171z" />
    <glyph glyph-name="comma" unicode="," horiz-adv-x="175" 
d="M74 -95l-13 14q15 13 25.5 31.5t10.5 30.5q0 17 -16 17q-22 0 -36.5 15t-14.5 37q0 24 16.5 39t39.5 15q29 0 44 -21t15 -53q0 -35 -19.5 -69.5t-51.5 -55.5z" />
    <glyph glyph-name="hyphen" unicode="-" horiz-adv-x="370" 
d="M50 249v26h270v-26h-270z" />
    <glyph glyph-name="period" unicode="." horiz-adv-x="189" 
d="M94 -6q-22 0 -38 16.5t-16 38.5t16 38.5t38 16.5t38.5 -16t16.5 -39t-16.5 -39t-38.5 -16z" />
    <glyph glyph-name="slash" unicode="/" horiz-adv-x="379" 
d="M35 0l267 641h42l-267 -641h-42z" />
    <glyph glyph-name="zero" unicode="0" horiz-adv-x="566" 
d="M283 -10q-80 0 -138 47t-84 119t-26 158t26 157.5t84 118.5t138 47t138 -47t84 -118.5t26 -157.5t-26 -158t-84 -119t-138 -47zM292 17q142 0 142 271q0 63 -8 117.5t-25.5 102t-50 75t-76.5 27.5q-143 0 -143 -270q0 -64 8 -118.5t25.5 -102t50 -75t77.5 -27.5z" />
    <glyph glyph-name="one" unicode="1" horiz-adv-x="313" 
d="M30 0v20q51 5 69 16t18 38v429q0 32 -7.5 39t-34.5 5l-41 -3v19l133 62q30 13 30 -16v-535q0 -27 18 -38t68 -16v-20h-253z" />
    <glyph glyph-name="two" unicode="2" horiz-adv-x="534" 
d="M40 0q0 52 26.5 100.5t66 83.5t85.5 72.5t85.5 69.5t66 73t26.5 83q0 52 -32 91t-92 39q-55 0 -89 -35.5t-34 -86.5q0 -22 7.5 -39.5t7.5 -27.5q0 -23 -13.5 -33t-31.5 -10q-27 0 -44 24.5t-17 61.5q0 68 55.5 119.5t161.5 51.5q101 0 156 -47t55 -125q0 -55 -32 -99
t-82.5 -76t-104 -61.5t-104.5 -70t-76 -86.5h261q57 0 83 15t43 58h20l-16 -82q-9 -47 3 -63h-441z" />
    <glyph glyph-name="three" unicode="3" horiz-adv-x="548" 
d="M257 -10q-95 0 -158.5 49.5t-63.5 126.5q0 62 49 62q22 0 28.5 -10.5t12 -44t17.5 -62.5q37 -95 126 -95q67 0 107.5 47t40.5 125q0 71 -33.5 106t-85.5 35q-35 0 -81 -19l-11 27q95 32 131 59t36 85t-30.5 95t-85.5 37q-51 0 -78 -34t-27 -89q0 -57 -42 -57
q-25 0 -37.5 15.5t-12.5 40.5q0 58 54 103t154 45q94 0 143 -39t49 -101q0 -94 -128 -138q36 4 75.5 -11.5t70.5 -55.5t31 -96q0 -88 -73 -147t-178 -59z" />
    <glyph glyph-name="four" unicode="4" horiz-adv-x="549" 
d="M252 0v20q43 5 59.5 16t16.5 38v93h-286l-17 50l299 420l84 -16v-387h101v-67h-101v-93q0 -27 16.5 -38t60.5 -16v-20h-233zM93 234h235v366l-245 -343q-7 -11 -4 -17t14 -6z" />
    <glyph glyph-name="five" unicode="5" horiz-adv-x="544" 
d="M257 -10q-95 0 -158.5 49t-63.5 127q0 62 49 62q22 0 28.5 -10.5t12 -44t17.5 -62.5q39 -95 126 -95q64 0 106.5 49.5t42.5 124.5q0 83 -47 141.5t-129 58.5q-93 0 -138 -68h-21l24 299h286l70 14l-11 -92h-327l-15 -181q27 28 72.5 46t93.5 18q90 0 162 -56.5t72 -157.5
q0 -95 -72 -158.5t-180 -63.5z" />
    <glyph glyph-name="six" unicode="6" horiz-adv-x="519" 
d="M265 -10q-62 0 -108.5 25t-72 68t-37.5 94.5t-12 111.5q0 66 15.5 126t45.5 111t82.5 81t121.5 30q72 0 111 -33l-13 -19q-40 21 -77 21q-54 0 -94 -28t-61.5 -74t-31 -95t-9.5 -101q11 29 60.5 59.5t110.5 30.5q82 0 137.5 -56t55.5 -139q0 -88 -60.5 -150.5
t-163.5 -62.5zM274 16q63 0 94.5 52.5t31.5 121.5q0 75 -35.5 122t-97.5 47q-58 0 -100 -44t-42 -113q0 -71 41 -128.5t108 -57.5z" />
    <glyph glyph-name="seven" unicode="7" horiz-adv-x="498" 
d="M95 0l312 543h-215q-55 0 -84.5 -11.5t-47.5 -51.5h-25l45 149l74 -8h319l-314 -621h-64z" />
    <glyph glyph-name="eight" unicode="8" horiz-adv-x="544" 
d="M263 -10q-105 0 -166.5 50.5t-61.5 131.5q0 116 132 163q-44 22 -68.5 60.5t-24.5 84.5q0 69 55.5 113t143.5 44q87 0 138.5 -43t51.5 -107q0 -91 -101 -135q70 -23 108.5 -67t38.5 -103q0 -82 -69.5 -137t-176.5 -55zM277 380q58 -16 88.5 21t30.5 91q0 50 -30 84.5
t-97 34.5q-59 0 -86.5 -30t-27.5 -75q0 -93 113 -124zM273 16q72 0 108.5 40t36.5 101q0 54 -32 85t-108 51l-13 3q-64 18 -110.5 -11.5t-46.5 -103.5q0 -69 43.5 -117t121.5 -48z" />
    <glyph glyph-name="nine" unicode="9" horiz-adv-x="519" 
d="M254 637q62 0 108.5 -25t72 -68t37.5 -94.5t12 -111.5q0 -66 -15 -126t-45.5 -111t-83 -81t-121.5 -30q-72 0 -110 33l12 19q40 -21 77 -21q54 0 94.5 28t61.5 74.5t31 95.5t10 101q-12 -30 -61.5 -60.5t-110.5 -30.5q-82 0 -137.5 56t-55.5 140q0 87 61 149.5t163 62.5z
M246 611q-63 0 -94.5 -52.5t-31.5 -121.5q0 -74 35.5 -121.5t96.5 -47.5q59 0 100.5 44t41.5 114q0 71 -40.5 128t-107.5 57z" />
    <glyph glyph-name="colon" unicode=":" horiz-adv-x="190" 
d="M94 327q-22 0 -38 16t-16 39q0 22 16 38t38 16t38.5 -16t16.5 -38q0 -23 -16 -39t-39 -16zM95 -6q-22 0 -38 16.5t-16 38.5t16 38.5t38 16.5q23 0 39 -16t16 -39t-16 -39t-39 -16z" />
    <glyph glyph-name="semicolon" unicode=";" horiz-adv-x="175" 
d="M87 326q-23 0 -39 16t-16 39q0 22 16.5 38t38.5 16t38 -16t16 -38q0 -23 -16 -39t-38 -16zM74 -95l-13 14q15 13 25.5 31.5t10.5 30.5q0 17 -16 17q-22 0 -36.5 15t-14.5 37q0 24 16.5 39t39.5 15q29 0 44 -21t15 -53q0 -35 -19.5 -69.5t-51.5 -55.5z" />
    <glyph glyph-name="less" unicode="&#x3c;" horiz-adv-x="469" 
d="M419 59l-369 175v34l369 175v-33l-331 -159l331 -159v-33z" />
    <glyph glyph-name="equal" unicode="=" horiz-adv-x="470" 
d="M50 328v27h370v-27h-370zM50 148v27h370v-27h-370z" />
    <glyph glyph-name="greater" unicode="&#x3e;" horiz-adv-x="469" 
d="M50 59v33l331 159l-331 159v33l369 -175v-34z" />
    <glyph glyph-name="question" unicode="?" horiz-adv-x="457" 
d="M210 174q-4 55 7 97t29 68.5t37 49t32.5 49.5t13.5 59q0 50 -30.5 79t-79.5 29q-48 0 -71 -28t-23 -66q0 -15 10 -40.5t10 -39.5q0 -16 -15 -29t-34 -13q-26 0 -43.5 24t-17.5 61q0 71 56 117t147 46q86 0 135 -41t49 -109q0 -33 -12.5 -60t-31 -44t-41 -38t-42.5 -41.5
t-34.5 -54t-17.5 -75.5h-33zM227 -6q-23 0 -39 16t-16 39t16 39t39 16q22 0 38 -16.5t16 -38.5t-16 -38.5t-38 -16.5z" />
    <glyph glyph-name="at" unicode="@" horiz-adv-x="707" 
d="M360 -83q-137 0 -233.5 94.5t-96.5 237.5q0 142 95.5 236.5t228.5 94.5q135 0 229 -90t94 -233q0 -90 -40.5 -142.5t-102.5 -52.5q-70 0 -91 80q-17 -30 -55 -55t-86 -25q-43 0 -74.5 23t-31.5 72q0 48 46 78.5t168 49.5q24 4 24 21q0 106 -75 106q-38 0 -52.5 -11.5
t-14.5 -40.5q0 -47 -38 -47q-36 0 -36 35q0 39 49.5 63t108.5 24q125 0 125 -134v-166q0 -21 9.5 -36.5t30.5 -15.5t35.5 15t20.5 39.5t8.5 45t2.5 41.5q0 139 -69 236.5t-185 97.5q-117 0 -185 -82t-68 -208q0 -128 76 -228.5t191 -100.5q55 0 83 7l4 -18q-47 -11 -95 -11z
M336 98q40 0 69 29t29 69v37q0 16 -5.5 24t-20.5 6q-78 -10 -108 -38t-30 -59t17 -49.5t49 -18.5z" />
    <glyph glyph-name="A" unicode="A" horiz-adv-x="713" 
d="M20 0v21q35 7 54 22.5t35 50.5l193 451q20 46 20 76l57 6l220 -508q24 -56 40.5 -74.5t53.5 -23.5v-21h-225v21q44 7 52 22.5t-7 44.5l-29 65q-17 36 -58 36h-194q-44 0 -57 -30l-29 -66q-25 -61 64 -72v-21h-190zM226 220h204q10 0 15.5 7t0.5 18l-108 251
q-10 24 -20 -1l-106 -248q-5 -13 -1 -20t15 -7z" />
    <glyph glyph-name="B" unicode="B" horiz-adv-x="620" 
d="M30 0v21q33 6 46.5 15.5t13.5 35.5v478q0 25 -13.5 34.5t-46.5 15.5v21h290q107 0 165.5 -36.5t58.5 -106.5q0 -111 -145 -145q88 -14 134.5 -55t46.5 -108q0 -75 -57 -122.5t-149 -47.5q-13 0 -86.5 3.5t-143 3.5t-114.5 -7zM243 350h74q135 0 135 124q0 120 -133 120
h-76q-32 0 -47 -9t-15 -34v-158q0 -25 14.5 -34t47.5 -9zM217 30h125q146 0 146 137q0 79 -54.5 117t-187.5 38q-34 0 -49.5 -9t-15.5 -34v-205q0 -44 36 -44z" />
    <glyph glyph-name="C" unicode="C" horiz-adv-x="639" 
d="M353 -10q-132 0 -227.5 88t-95.5 235q0 148 97.5 236t233.5 88q105 0 170.5 -50t65.5 -109q0 -27 -15.5 -44.5t-41.5 -17.5q-23 0 -38 16t-17 46q-4 50 -43 88.5t-114 38.5q-93 0 -150 -65.5t-57 -178.5q0 -137 83.5 -223t205.5 -86q102 0 180 87l14 -12
q-27 -49 -91.5 -93t-159.5 -44z" />
    <glyph glyph-name="D" unicode="D" horiz-adv-x="641" 
d="M30 0v21q33 6 46.5 15.5t13.5 35.5v478q0 25 -13.5 34.5t-46.5 15.5v21h234q68 0 125.5 -15.5t106.5 -49t77 -95t28 -145.5q0 -80 -26 -141.5t-71.5 -98.5t-103 -55.5t-124.5 -18.5q-19 0 -70.5 2.5t-72.5 2.5q-44 0 -103 -7zM269 28q84 0 139 41t76.5 103t21.5 144
q0 60 -12.5 108.5t-40 87.5t-75.5 60.5t-113 21.5h-22q-32 0 -47 -9t-15 -34v-479q0 -44 88 -44z" />
    <glyph glyph-name="E" unicode="E" horiz-adv-x="562" 
d="M30 0v21q33 6 46.5 15.5t13.5 35.5v477q0 26 -13.5 35.5t-46.5 15.5v21h454q14 0 15 -12q6 -52 20 -109h-19q-19 47 -49 70t-80 23h-128q-32 0 -47 -10t-15 -37v-171q0 -27 14.5 -36t47.5 -9h99q43 0 59 16.5t23 55.5h16v-173h-16q-7 38 -23 55.5t-59 17.5h-99
q-32 0 -47 -9.5t-15 -35.5v-181q0 -28 19.5 -38t74.5 -9l115 1q50 1 72.5 14.5t37.5 39.5l24 37h20q-22 -40 -30 -107q-2 -14 -16 -14h-468z" />
    <glyph glyph-name="F" unicode="F" horiz-adv-x="538" 
d="M30 0v21q33 6 46.5 15.5t13.5 35.5v477q0 26 -13.5 35.5t-46.5 15.5v21h454q14 0 15 -12q6 -52 20 -109h-19q-19 47 -49 70t-80 23h-128q-32 0 -47 -10t-15 -37v-171q0 -27 14.5 -36t47.5 -9h99q43 0 59 15t23 47h16v-153h-16q-7 32 -23.5 47.5t-58.5 15.5h-99
q-32 0 -47 -9.5t-15 -35.5v-185q0 -26 15 -35.5t56 -15.5v-21h-222z" />
    <glyph glyph-name="G" unicode="G" horiz-adv-x="671" 
d="M345 -10q-129 0 -222 87t-93 234q0 149 97 237.5t234 88.5q104 0 169.5 -50t65.5 -107q0 -25 -15.5 -41.5t-41.5 -16.5q-22 0 -36 14t-16 37q-4 51 -44 91.5t-115 40.5q-93 0 -150 -65.5t-57 -178.5q0 -143 86.5 -238.5t205.5 -95.5q87 0 87 69v70q0 56 -16.5 75
t-72.5 23v20l235 1v-21q-40 -5 -51.5 -23.5t-11.5 -74.5v-73q0 -62 5 -93q-23 19 -50 21t-51 -5.5t-64 -16.5t-78 -9z" />
    <glyph glyph-name="H" unicode="H" horiz-adv-x="686" 
d="M656 600q-33 -6 -46.5 -15.5t-13.5 -35.5v-477q0 -26 13.5 -35.5t46.5 -15.5v-21h-211v21q33 6 46.5 15.5t13.5 35.5v189q0 34 -34 34h-255q-35 0 -35 -34v-189q0 -26 13.5 -35.5t47.5 -15.5v-21h-212v21q33 6 46.5 15.5t13.5 35.5v477q0 26 -13.5 35.5t-46.5 15.5v21
h212v-21q-34 -6 -47.5 -15.5t-13.5 -35.5v-192q0 -35 36 -35h253q35 0 35 35v192q0 26 -13.5 35.5t-46.5 15.5v21h211v-21z" />
    <glyph glyph-name="I" unicode="I" horiz-adv-x="272" 
d="M30 0v21q33 6 46.5 15.5t13.5 35.5v477q0 26 -13.5 35.5t-46.5 15.5v21h212v-21q-34 -6 -47.5 -15.5t-13.5 -35.5v-477q0 -26 13.5 -35.5t47.5 -15.5v-21h-212z" />
    <glyph glyph-name="J" unicode="J" horiz-adv-x="353" 
d="M115 -10q-64 0 -99.5 27t-35.5 66q0 23 12.5 37.5t34.5 14.5q43 0 43 -54q0 -25 13.5 -45t39.5 -20q48 0 48 71v462q0 26 -15 35.5t-55 15.5v21h222v-21q-34 -6 -47.5 -15.5t-13.5 -35.5v-411q0 -148 -147 -148z" />
    <glyph glyph-name="K" unicode="K" horiz-adv-x="642" 
d="M497 103q26 -33 50.5 -51.5t35 -22t34.5 -8.5v-21h-224v21q27 2 35 13.5t-12 40.5l-153 188q-24 30 -54 1q-27 -25 -28 -60v-132q0 -26 13.5 -35.5t47.5 -15.5v-21h-212v21q33 6 46.5 15.5t13.5 35.5v477q0 26 -13.5 35.5t-46.5 15.5v21h212v-21q-34 -6 -47.5 -15.5
t-13.5 -35.5v-275l258 264q20 20 17 33.5t-15.5 20.5t-29.5 8v21h188v-21q-62 -4 -126 -66l-150 -155q-26 -27 6 -65z" />
    <glyph glyph-name="L" unicode="L" horiz-adv-x="551" 
d="M30 0v21q33 6 46.5 15.5t13.5 35.5v477q0 26 -13.5 35.5t-46.5 15.5v21h212v-21q-34 -6 -47.5 -15.5t-13.5 -35.5v-477q0 -49 57 -48l144 8q75 4 110 62l17 30h22l-20 -63q-12 -35 -10 -61h-471z" />
    <glyph glyph-name="M" unicode="M" horiz-adv-x="800" 
d="M30 0v21q34 6 48 15.5t14 35.5v477q0 26 -14 35.5t-48 15.5v21h156l221 -456l211 456h152v-21q-33 -6 -46.5 -15.5t-13.5 -35.5v-477q0 -26 13.5 -35.5t46.5 -15.5v-21h-211v21q33 6 46.5 15.5t13.5 35.5v475l-225 -488h-30l-239 490v-477q0 -26 14 -35.5t47 -15.5v-21
h-156z" />
    <glyph glyph-name="N" unicode="N" horiz-adv-x="653" 
d="M30 0v21q34 6 48 15.5t14 35.5v477q0 26 -14 35.5t-48 15.5v21h132l365 -476v404q0 26 -13.5 35.5t-46.5 15.5v21h156v-21q-34 -6 -48 -15.5t-14 -35.5v-549h-34l-402 525v-453q0 -26 13.5 -35.5t46.5 -15.5v-21h-155z" />
    <glyph glyph-name="O" unicode="O" horiz-adv-x="701" 
d="M344 -10q-135 0 -224.5 90t-89.5 228q0 140 94 234.5t233 94.5q135 0 224.5 -90t89.5 -227q0 -141 -94 -235.5t-233 -94.5zM370 23q82 0 140.5 64t58.5 197q0 140 -69 230t-169 90q-82 0 -140.5 -63.5t-58.5 -195.5q0 -141 69 -231.5t169 -90.5z" />
    <glyph glyph-name="P" unicode="P" horiz-adv-x="582" 
d="M30 0v21q33 6 46.5 15.5t13.5 35.5v477q0 26 -13.5 35.5t-46.5 15.5v21h271q123 0 189.5 -49t66.5 -140t-67 -142.5t-189 -51.5h-65q-30 0 -42.5 -13t-12.5 -41v-112q0 -26 15 -35.5t56 -15.5v-21h-222zM236 266h65q159 0 159 164q0 163 -159 163h-71q-26 0 -37.5 -9.5
t-11.5 -35.5v-227q0 -29 12.5 -42t42.5 -13z" />
    <glyph glyph-name="Q" unicode="Q" horiz-adv-x="701" 
d="M631 -26q21 0 33 -14t12 -35q0 -38 -39 -65.5t-93 -27.5q-59 0 -117 42l-147 108q-54 37 -79.5 27.5t-25.5 -56.5q0 -16 -12 -27t-29 -11q-19 0 -30.5 12t-11.5 31q0 28 23 48.5t63 28.5q-69 41 -108.5 112.5t-39.5 160.5q0 140 94 234.5t233 94.5q135 0 224.5 -90
t89.5 -227q0 -132 -82.5 -223.5t-208.5 -104.5l122 -88q62 -43 72.5 -39.5t10.5 64.5q0 18 12 31.5t34 13.5zM331 604q-82 0 -140.5 -63.5t-58.5 -195.5q0 -141 69 -231.5t169 -90.5q82 0 140.5 64t58.5 197q0 140 -69 230t-169 90z" />
    <glyph glyph-name="R" unicode="R" horiz-adv-x="615" 
d="M30 0v21q33 6 46.5 15.5t13.5 35.5v477q0 26 -13.5 35.5t-46.5 15.5v21h272q116 0 176 -44t60 -124q0 -117 -142 -154q-3 -1 -4.5 -3t0 -3.5t4.5 -2.5q77 -23 107 -120q27 -86 45 -117.5t47 -31.5v-21h-27q-70 0 -98 31t-60 128q-23 69 -58 96t-98 27q-43 0 -58 -12
t-15 -42v-156q0 -26 15 -35.5t56 -15.5v-21h-222zM236 312h72q137 0 137 139q0 142 -140 142h-58q-36 0 -51 -9.5t-15 -35.5v-182q0 -29 12.5 -41.5t42.5 -12.5z" />
    <glyph glyph-name="S" unicode="S" horiz-adv-x="534" 
d="M250 -10q-99 0 -190 54q-21 52 -19.5 100t23.5 48q12 0 16 -12q24 -75 79 -118t127 -42q58 2 91.5 29.5t33.5 82.5q0 15 -2.5 27.5t-9.5 23.5t-12 19t-18 16t-19.5 12.5t-25 11.5t-25 9.5t-29 10l-28.5 9.5q-93 32 -144 77.5t-51 117.5q0 76 60 123.5t164 47.5
q101 0 179 -46q21 -53 19.5 -100.5t-23.5 -47.5q-11 0 -16 12q-24 74 -74.5 113.5t-112.5 39.5q-58 0 -86 -32.5t-28 -78.5q0 -53 36.5 -81.5t109.5 -52.5q36 -12 50.5 -17.5t48 -20t50 -27.5t37 -33t29.5 -45.5t9 -56.5q0 -87 -73 -130t-176 -43z" />
    <glyph glyph-name="T" unicode="T" horiz-adv-x="592" 
d="M149 0v21q63 5 82.5 14.5t19.5 36.5v457q0 37 -14 48.5t-68 11.5q-52 0 -76 -19.5t-45 -78.5h-23l16 124q1 8 11 8q32 -2 66 -2h356q36 0 66 2q11 0 12 -8l15 -124h-23q-21 59 -45 78.5t-76 19.5q-54 0 -67.5 -11.5t-13.5 -48.5v-457q0 -27 19.5 -36.5t81.5 -14.5v-21
h-294z" />
    <glyph glyph-name="U" unicode="U" horiz-adv-x="654" 
d="M329 -10q-110 0 -177 66t-67 196v297q0 26 -13.5 35.5t-46.5 15.5v21h212v-21q-34 -6 -47.5 -15.5t-13.5 -35.5v-278q0 -119 45.5 -178.5t127.5 -59.5q79 0 130.5 54.5t51.5 177.5v284q0 26 -14.5 35.5t-49.5 15.5v21h162v-21q-34 -6 -48 -15.5t-14 -35.5v-291
q0 -129 -62 -198.5t-176 -69.5z" />
    <glyph glyph-name="V" unicode="V" horiz-adv-x="713" 
d="M331 0l-217 502q-24 57 -40.5 75t-53.5 23v21h225v-21q-44 -7 -52.5 -22.5t7.5 -44.5l175 -408q11 -23 20 1l171 402q26 61 -63 72v21h190v-21q-36 -7 -55 -22t-34 -50l-193 -451q-20 -47 -20 -77h-60z" />
    <glyph glyph-name="W" unicode="W" horiz-adv-x="1015" 
d="M310 0l-196 502q-21 55 -39 74t-55 24v21h220v-21q-44 -7 -51.5 -22t6.5 -45l155 -402q10 -24 20 0l98 254q19 51 -6 117q-22 56 -39.5 74.5t-54.5 23.5v21h219v-21q-44 -7 -51.5 -22t7.5 -45l154 -402q10 -24 20 0l152 397q22 62 -63 72v21h189v-21q-36 -7 -55.5 -22
t-33.5 -50l-174 -451q-19 -52 -19 -77h-56l-151 390l-121 -313q-20 -54 -20 -77h-55z" />
    <glyph glyph-name="X" unicode="X" horiz-adv-x="665" 
d="M20 0v21q37 3 83.5 43.5t144.5 165.5l50 64l-146 209q-36 53 -61 73t-60 24v21h221v-21q-33 -4 -39 -15t15 -43l128 -183q141 178 129 220q-4 19 -35 21v21h193v-21q-36 -3 -81 -43t-144 -166l-45 -57l150 -215q37 -53 62 -73.5t60 -24.5v-21h-221v21q33 4 38.5 15
t-14.5 43l-132 190q-144 -181 -138 -225q3 -20 36 -23v-21h-194z" />
    <glyph glyph-name="Y" unicode="Y" horiz-adv-x="636" 
d="M193 0v21q47 6 63.5 15t16.5 36v170q0 23 -21 57l-131 207q-30 47 -52.5 66t-53.5 28v21h222v-21q-39 -8 -44.5 -24t15.5 -47l130 -206q7 -9 14 0l123 202q19 27 14.5 43t-17 22.5t-35.5 9.5v21h184v-21q-36 -4 -58.5 -21t-51.5 -63l-133 -213q-14 -23 -14 -61v-170
q0 -27 16.5 -36t63.5 -15v-21h-251z" />
    <glyph glyph-name="Z" unicode="Z" horiz-adv-x="568" 
d="M15 0l394 579q9 17 -9 17l-181 -1q-71 0 -101.5 -24t-49.5 -75h-24l20 125h479l-395 -579q-5 -6 -2 -11.5t11 -5.5l212 3q63 1 94 22.5t56 70.5h24l-26 -121h-502z" />
    <glyph glyph-name="bracketleft" unicode="[" 
d="M235 -166l-190 9v907l190 9v-9q0 -12 -21 -16l-97 -19v-837l97 -19q21 -3 21 -16v-9z" />
    <glyph glyph-name="backslash" unicode="\" horiz-adv-x="379" 
d="M344 0h-42l-267 641h42z" />
    <glyph glyph-name="bracketright" unicode="]" 
d="M25 -166v9q0 13 21 16l97 19v837l-97 19q-21 4 -21 16v9l190 -9v-907z" />
    <glyph glyph-name="asciicircum" unicode="^" horiz-adv-x="424" 
d="M61 451q-8 0 -10.5 8t5.5 19l147 197q11 13 18 0l147 -197q8 -11 6 -19t-11 -8h-14q-9 0 -26 20l-111 121l-110 -122q-17 -19 -26 -19h-15z" />
    <glyph glyph-name="underscore" unicode="_" horiz-adv-x="612" 
d="M50 -42v22h512v-22h-512z" />
    <glyph glyph-name="grave" unicode="`" horiz-adv-x="287" 
d="M242 532q-7 -10 -29 3l-117 71q-25 15 -30.5 34.5t6.5 29.5q27 29 62 -8l99 -105q15 -14 9 -25z" />
    <glyph glyph-name="a" unicode="a" horiz-adv-x="488" 
d="M160 -6q-55 0 -92.5 27.5t-37.5 82.5q0 63 63 103.5t221 58.5q24 2 24 27v24q0 55 -27 86t-82 31q-84 0 -84 -73q0 -52 -44 -52q-20 0 -30.5 12.5t-10.5 33.5q0 53 57.5 79t137.5 26q88 0 125.5 -39.5t37.5 -124.5v-229q0 -43 51 -34v-12q-20 -27 -67 -27q-62 0 -65 73
q1 7 -4 7t-10 -7q-28 -34 -72 -53.5t-91 -19.5zM207 40q54 0 92.5 34.5t38.5 85.5v46q0 19 -8 28t-32 6q-182 -22 -182 -118q0 -35 23 -58.5t68 -23.5z" />
    <glyph glyph-name="b" unicode="b" horiz-adv-x="541" 
d="M88 -6q-13 0 -13 14v546q0 35 -12.5 48t-52.5 9v20l110 24q35 8 35 -28v-218q0 -8 5.5 -10t13.5 6q16 20 55.5 37.5t84.5 17.5q84 0 140.5 -62t56.5 -163q0 -112 -63.5 -176.5t-151.5 -64.5q-49 0 -100 24.5t-57 24.5q-14 0 -28 -24.5t-23 -24.5zM300 20q61 0 96.5 47.5
t35.5 126.5q0 90 -45.5 150.5t-115.5 60.5q-46 0 -81 -28t-35 -95v-103q0 -78 44.5 -118.5t100.5 -40.5z" />
    <glyph glyph-name="c" unicode="c" horiz-adv-x="487" 
d="M266 -6q-99 0 -167.5 63t-68.5 169q0 108 71 171t172 63q77 0 124.5 -36.5t47.5 -80.5q0 -21 -12.5 -34.5t-32.5 -13.5q-40 0 -44 44q-4 39 -29 66.5t-76 27.5q-64 0 -101.5 -46t-37.5 -127q0 -97 57.5 -154t143.5 -57q81 0 122 64l17 -14q-16 -39 -65 -72t-121 -33z" />
    <glyph glyph-name="d" unicode="d" horiz-adv-x="541" 
d="M223 -6q-82 0 -137.5 64t-55.5 166q0 109 64.5 172.5t155.5 63.5q25 0 50 -5.5t39 -11t26 -8.5t16.5 2.5t4.5 21.5v95q0 35 -12.5 48t-52.5 9v20l110 24q35 8 35 -28v-560q0 -43 51 -34v-12q-19 -27 -66 -27q-49 0 -63 46q-4 15 -18 15q-10 0 -29 -15t-49 -30.5
t-69 -15.5zM273 49q45 0 79 26.5t34 87.5v115q0 77 -44.5 116.5t-101.5 39.5q-61 0 -95.5 -47.5t-34.5 -126.5q0 -92 45 -151.5t118 -59.5z" />
    <glyph glyph-name="e" unicode="e" horiz-adv-x="478" 
d="M260 -6q-97 0 -163.5 64t-66.5 170q0 107 66.5 169.5t165.5 62.5q75 0 119.5 -36.5t44.5 -93.5q0 -49 -42 -70t-149 -26l-89 -4q-31 -1 -25 -42q10 -64 61 -102t120 -38q81 0 125 57l16 -13q-19 -36 -66 -67t-117 -31zM148 255l73 1q71 2 97 17.5t26 55.5q0 45 -25 74.5
t-75 29.5q-56 0 -88.5 -35.5t-39.5 -97.5q-3 -29 4.5 -37.5t27.5 -7.5z" />
    <glyph glyph-name="f" unicode="f" horiz-adv-x="370" 
d="M25 0v21q41 4 56 15t15 38v311q0 17 -5.5 23t-16.5 6h-54v22q42 7 59 17t17 33q0 97 47 146.5t129 49.5q49 0 78.5 -17.5t29.5 -49.5q0 -38 -40 -38q-19 0 -32 11.5t-19.5 26t-22.5 26t-39 11.5q-32 0 -41.5 -24t-9.5 -81v-70q0 -19 10 -25t42 -6h69v-34l-69 2
q-32 1 -42 -5.5t-10 -25.5v-309q0 -27 18 -38t71 -15v-21h-240z" />
    <glyph glyph-name="g" unicode="g" horiz-adv-x="510" 
d="M202 -190q-81 0 -134 31t-53 86q0 66 87 98q15 6 16 7q0 2 -8 3q-32 5 -53 25.5t-21 46.5t21.5 44.5t62.5 24.5q-75 43 -75 129q0 69 49 112t135 43q52 0 95 -18t66 -52q-1 30 13 49.5t45 19.5q22 0 34.5 -10t12.5 -27q0 -20 -15.5 -29t-33.5 -3q-21 7 -33 -3t-5 -32
q6 -19 6 -48q0 -69 -48.5 -111t-131.5 -42q-20 0 -48 3t-38 3q-40 0 -40 -29q0 -25 46 -32l160 -28q77 -13 114 -35.5t37 -67.5q0 -68 -80.5 -113t-182.5 -45zM246 176q43 0 62.5 32t19.5 80q0 65 -31.5 107t-83.5 42q-44 0 -63.5 -31.5t-19.5 -79.5q0 -65 32 -107.5
t84 -42.5zM237 -167q63 0 105.5 29t42.5 75q0 28 -19 42t-63 23l-67 11q-72 13 -106.5 -9t-34.5 -66q0 -49 40 -77t102 -28z" />
    <glyph glyph-name="h" unicode="h" horiz-adv-x="544" 
d="M458 -6q-64 0 -64 71v206q0 63 -29.5 101t-83.5 38t-87.5 -38.5t-33.5 -100.5v-197q0 -27 14 -38t51 -15v-21h-209v21q36 4 50 15t14 38v480q0 35 -12.5 48t-52.5 9v20l110 24q35 8 35 -28v-199q0 -45 15 -42l8 5l9 9q10 10 16 15.5t20 15t27 15t32.5 10t40.5 4.5
q62 0 104 -41t42 -125v-227q0 -43 51 -34v-12q-20 -27 -67 -27z" />
    <glyph glyph-name="i" unicode="i" 
d="M121 568q-20 0 -35 15.5t-15 35.5t15 35t35 15t35 -15t15 -35t-15 -35.5t-35 -15.5zM26 0v21q36 4 50 15t14 38v282q0 36 -12.5 49t-52.5 9v19l110 25q35 8 35 -29v-355q0 -27 14 -38t51 -15v-21h-209z" />
    <glyph glyph-name="j" unicode="j" horiz-adv-x="229" 
d="M114 568q-20 0 -35 15.5t-15 35.5t15 35t35 15t35 -15t15 -35t-15 -35.5t-35 -15.5zM36 -200q-38 0 -66 16t-28 46q0 18 10.5 29t29.5 11q14 0 25 -11.5t17.5 -26t15.5 -26t20 -11.5q24 0 24 52v477q0 36 -12.5 49t-52.5 9v19l110 25q35 8 35 -29v-491q0 -65 -35 -101.5
t-93 -36.5z" />
    <glyph glyph-name="k" unicode="k" horiz-adv-x="509" 
d="M16 0v21q36 4 50 15t14 38v480q0 35 -12.5 48t-52.5 9v20l110 24q35 8 35 -28v-364q0 -14 7.5 -18.5t16.5 3.5l157 142q9 9 9 17t-12.5 14.5t-36.5 8.5v21h165v-21q-11 -1 -20.5 -3.5t-15 -4t-13.5 -7t-11 -7.5t-13 -10.5t-13 -11.5l-110 -98l159 -220q15 -20 27.5 -30
t21 -12t31.5 -5v-21h-187v21q28 4 31.5 11.5t-11.5 28.5l-119 166q-9 11 -26 -3q-37 -33 -37 -61v-89q0 -27 14 -38t51 -15v-21h-209z" />
    <glyph glyph-name="l" unicode="l" horiz-adv-x="230" 
d="M139 -6q-64 0 -64 71v489q0 35 -12.5 48t-52.5 9v20l110 24q35 8 35 -28v-560q0 -43 51 -34v-12q-19 -27 -67 -27z" />
    <glyph glyph-name="m" unicode="m" horiz-adv-x="809" 
d="M723 -6q-64 0 -64 71v206q0 64 -24.5 101.5t-73.5 37.5q-48 0 -77 -38.5t-29 -100.5v-197q0 -26 13.5 -37.5t45.5 -15.5v-21h-205v21q37 4 51.5 15t14.5 38v197q0 64 -24.5 101.5t-73.5 37.5q-48 0 -77.5 -38.5t-29.5 -100.5v-197q0 -27 14 -38t51 -15v-21h-209v21
q36 4 50 15t14 38v281q0 35 -12.5 48t-52.5 9v21l110 25q35 8 35 -30q0 -46 14 -43q3 1 8 6l8 10q8 10 13 15t17 15t23 15t28.5 9.5t36.5 4.5q77 0 114 -63q19 -34 39 -8q13 18 22 28.5t39.5 26.5t67.5 16q62 0 100.5 -40t38.5 -123v-230q0 -43 51 -34v-12q-20 -27 -67 -27z
" />
    <glyph glyph-name="n" unicode="n" horiz-adv-x="554" 
d="M468 -6q-64 0 -64 71v206q0 63 -29.5 101t-83.5 38q-56 0 -88.5 -38.5t-32.5 -100.5v-197q0 -27 14 -38t51 -15v-21h-209v21q36 4 50 15t14 38v282q0 36 -12.5 49t-52.5 9v19l110 25q35 8 35 -30q0 -45 15 -42l8 5q64 69 142 69q64 0 106.5 -41t42.5 -125v-227
q0 -45 51 -34v-12q-20 -27 -67 -27z" />
    <glyph glyph-name="o" unicode="o" horiz-adv-x="520" 
d="M259 -6q-95 0 -162 63.5t-67 168.5t67.5 169.5t164.5 64.5q95 0 161.5 -63.5t66.5 -167.5q0 -105 -67.5 -170t-163.5 -65zM284 22q54 0 87 43.5t33 126.5q0 99 -47.5 169.5t-120.5 70.5q-54 0 -86.5 -43t-32.5 -126q0 -100 47 -170.5t120 -70.5z" />
    <glyph glyph-name="p" unicode="p" horiz-adv-x="551" 
d="M21 -190v21q36 4 50 15t14 38v472q0 36 -12.5 49t-52.5 9v19l110 25q35 8 35 -31v-14q0 -9 5.5 -11.5t13.5 5.5q17 19 56 36t84 17q84 0 140.5 -62.5t56.5 -164.5q0 -110 -64 -174.5t-152 -64.5q-27 0 -52.5 6.5t-40 13.5t-26.5 11t-16.5 -0.5t-4.5 -21.5v-119
q0 -27 15 -38t54 -15v-21h-213zM310 20q61 0 96.5 47.5t35.5 126.5q0 90 -45.5 150.5t-115.5 60.5q-46 0 -81 -28t-35 -94v-104q0 -78 44.5 -118.5t100.5 -40.5z" />
    <glyph glyph-name="q" unicode="q" horiz-adv-x="530" 
d="M312 -190v21q43 4 58.5 15t15.5 38v149q0 15 -10 19t-20 -5q-53 -53 -127 -53q-85 0 -142 65t-57 168q0 109 63.5 171t158.5 62q41 0 71 -12t47 -23.5t26 -11.5q14 0 31 23t26 23q13 0 13 -15v-560q0 -27 14 -38t50 -15v-21h-218zM270 49q46 0 81 26t35 85v97
q0 91 -44 134t-102 43q-61 0 -95.5 -48t-34.5 -127q0 -91 44.5 -150.5t115.5 -59.5z" />
    <glyph glyph-name="r" unicode="r" horiz-adv-x="430" 
d="M26 0v21q36 4 50 15t14 38v282q0 36 -12.5 49t-52.5 9v19l110 25q35 8 35 -30v-28q0 -9 6 -11t15 6q60 65 132 65q51 0 71.5 -25.5t20.5 -54.5q0 -22 -13 -35.5t-33 -13.5q-19 0 -30.5 10.5t-11.5 24.5q0 20 -13.5 34t-37.5 14q-44 0 -75 -42.5t-31 -110.5v-187
q0 -27 14.5 -38t52.5 -15v-21h-211z" />
    <glyph glyph-name="s" unicode="s" horiz-adv-x="423" 
d="M203 -6q-99 0 -151 45q-18 35 -17.5 68.5t24.5 33.5q15 0 22 -20q37 -102 135 -102q47 0 71.5 20t24.5 55q0 11 -2 20t-7 16.5l-9 13.5t-13.5 12t-15 9.5t-18.5 9t-18 7.5t-20.5 7t-20.5 7q-67 23 -105.5 53.5t-38.5 83.5q0 58 47 92.5t125 34.5q83 0 138 -38
q18 -34 17 -67.5t-25 -33.5q-14 0 -21 20q-34 95 -122 95q-40 0 -62 -18.5t-22 -51.5q0 -39 26 -60.5t79 -40.5q4 -1 22 -7.5t24 -8.5t22.5 -8t23 -10t20 -11.5t19.5 -13t15 -15t13 -18.5t7 -20.5t3 -24.5q0 -61 -53 -97.5t-137 -36.5z" />
    <glyph glyph-name="t" unicode="t" horiz-adv-x="321" 
d="M200 -5q-53 0 -84.5 29t-31.5 89v277q0 18 -5.5 24.5t-16.5 6.5h-47v22q75 29 118 105q4 8 13 8h9q10 0 10 -10l-1 -69q0 -16 9.5 -21t40.5 -5h77v-36l-77 4q-31 1 -40.5 -5t-9.5 -26v-264q0 -48 13.5 -72t48.5 -24q28 0 56 18l9 -14q-35 -37 -91 -37z" />
    <glyph glyph-name="u" unicode="u" horiz-adv-x="559" 
d="M236 -6q-62 0 -104 40.5t-42 121.5v200q0 36 -12.5 48t-52.5 10v19l110 25q35 8 35 -29v-251q0 -61 30 -98.5t84 -37.5t87 38t33 98v178q0 36 -12.5 48t-52.5 10v19l110 25q35 8 35 -29v-362q0 -43 51 -34v-12q-20 -27 -67 -27q-58 0 -66 60q-2 12 -9 12t-13 -6l-8 -8
q-7 -7 -12 -11l-15 -12t-20.5 -13t-24.5 -10.5t-30 -8.5t-34 -3z" />
    <glyph glyph-name="v" unicode="v" horiz-adv-x="518" 
d="M226 0l-136 338q-19 48 -33.5 64t-46.5 28v21h199v-21q-41 -12 -46.5 -27.5t13.5 -64.5l87 -214q7 -17 12 -22t10.5 0.5t12.5 22.5l43 109q33 83 39 123t-5 52t-45 21v21h178v-21q-44 -12 -62.5 -28.5t-36.5 -63.5l-136 -338h-47z" />
    <glyph glyph-name="w" unicode="w" horiz-adv-x="754" 
d="M223 0l-133 338q-18 47 -32.5 63.5t-47.5 28.5v21h197v-21q-41 -12 -46.5 -27.5t14.5 -64.5l83 -213q7 -17 12.5 -22.5t11 0t11.5 22.5l31 87q30 82 5 145q-12 30 -27.5 45.5t-46.5 27.5v21h196v-21q-40 -12 -45.5 -27.5t13.5 -64.5l84 -213q7 -17 12.5 -22.5t11 0
t11.5 22.5l38 109q24 66 33.5 101t6 55.5t-13.5 26.5t-36 13v21h178v-21q-44 -12 -61.5 -28.5t-36.5 -63.5l-133 -338h-46l-100 254l-99 -254h-45z" />
    <glyph glyph-name="x" unicode="x" horiz-adv-x="498" 
d="M15 0v21q46 12 72.5 31t68.5 73l63 83l-94 132q-31 43 -53 62t-53 28v21h200v-21q-27 -7 -34 -18t-0.5 -26t29.5 -46l53 -73q46 61 61.5 94t8 47t-36.5 22v21h181v-21q-46 -12 -72 -31t-68 -73l-60 -79l96 -135q30 -43 52 -62t54 -29v-21h-200v21q27 7 34 18t0.5 26.5
t-29.5 46.5l-55 75q-36 -47 -53.5 -76.5t-20.5 -48t6 -27t31 -14.5v-21h-181z" />
    <glyph glyph-name="y" unicode="y" horiz-adv-x="523" 
d="M119 -198q-37 0 -58.5 17t-21.5 44q0 22 14.5 35.5t36.5 13.5q19 0 28 -11.5t10 -25.5t6.5 -25.5t19.5 -11.5q31 0 60 74q23 59 -4 131l-120 295q-19 48 -33.5 64t-46.5 28v21h199v-21q-41 -12 -46.5 -27.5t14.5 -64.5l89 -219q7 -15 12 -19.5t10.5 0.5t12.5 20l44 114
q25 63 36 99.5t6.5 56t-15 26.5t-36.5 14v21h177v-21q-43 -12 -61.5 -28.5t-36.5 -63.5l-168 -415q-26 -63 -51.5 -92t-76.5 -29z" />
    <glyph glyph-name="z" unicode="z" horiz-adv-x="441" 
d="M15 0l282 403q11 18 -9 18h-139q-34 0 -53.5 -19.5t-32.5 -59.5h-21l18 109h366l-281 -402q-5 -8 -2.5 -13.5t11.5 -5.5h148q34 0 53.5 19.5t33.5 59.5h21l-18 -109h-377z" />
    <glyph glyph-name="braceleft" unicode="{" horiz-adv-x="264" 
d="M226 -166q-48 19 -75 53.5t-34.5 69.5t-7.5 86v181q0 22 -12 32.5t-52 28.5v21q40 18 52 28.5t12 32.5v181q0 51 7.5 86t34.5 69.5t75 53.5l13 -27q-33 -17 -45.5 -60.5t-12.5 -121.5v-187q0 -40 -72 -64v-3q36 -12 54 -26t18 -37v-188q0 -78 12.5 -121.5t45.5 -60.5z
" />
    <glyph glyph-name="bar" unicode="|" horiz-adv-x="227" 
d="M100 -215v1015h27v-1015h-27z" />
    <glyph glyph-name="braceright" unicode="}" horiz-adv-x="264" 
d="M38 -166l-13 27q33 17 46 61t13 121v188q0 23 18 37t53 26v3q-71 24 -71 64v187q0 77 -13 121t-46 61l13 27q48 -19 75 -53.5t34.5 -69.5t7.5 -86v-181q0 -22 12 -32.5t52 -28.5v-21q-40 -18 -52 -28.5t-12 -32.5v-181q0 -51 -7.5 -86t-34.5 -69.5t-75 -53.5z" />
    <glyph glyph-name="asciitilde" unicode="~" horiz-adv-x="487" 
d="M330 181q-48 0 -117.5 35.5t-90.5 35.5q-20 0 -34 -13.5t-14 -38.5h-24q0 57 30.5 88t76.5 31q47 0 116.5 -35.5t91.5 -35.5q20 0 34 13.5t14 38.5h24q0 -57 -30 -88t-77 -31z" />
    <glyph glyph-name="exclamdown" unicode="&#xa1;" horiz-adv-x="206" 
d="M103 456q22 0 38 -16.5t16 -38.5t-16 -38t-38 -16q-23 0 -38.5 15.5t-15.5 38.5t16 39t38 16zM89 267h27q2 -96 23.5 -218t21.5 -162q0 -34 -15.5 -54t-42.5 -20q-28 0 -43 19.5t-15 54.5q0 40 21 162t23 218z" />
    <glyph glyph-name="cent" unicode="&#xa2;" horiz-adv-x="487" 
d="M435 113l17 -14q-16 -39 -65 -72t-121 -33q-39 0 -77 11l-18 -66h-21l20 73q-63 25 -101.5 80.5t-38.5 133.5q0 108 71 171t172 63q13 0 19 -1l16 60h21l-17 -62q61 -9 97 -43t36 -71q0 -21 -12.5 -34.5t-32.5 -13.5q-40 0 -44 44q-8 61 -53 83l-95 -346q46 -27 105 -27
q81 0 122 64zM112 260q0 -113 79 -172l93 341q-13 4 -33 4q-64 0 -101.5 -46t-37.5 -127z" />
    <glyph glyph-name="sterling" unicode="&#xa3;" horiz-adv-x="530" 
d="M474 63q-9 -47 3 -63h-437v56q53 31 78 58t25 64q0 17 -7 43h-96v20h89q-7 20 -29.5 65.5t-35.5 83.5t-13 75q0 78 57.5 125t157.5 47q107 0 158 -51.5t51 -120.5q0 -38 -15.5 -61.5t-44.5 -23.5q-18 0 -31.5 9.5t-13.5 31.5q0 11 7.5 29.5t7.5 39.5q0 51 -33.5 87
t-89.5 36q-58 0 -87.5 -37.5t-29.5 -91.5q0 -48 36.5 -128t42.5 -115h178v-20h-176v-7q0 -53 -32.5 -83t-97.5 -59h218q73 0 106 15t51 58h19z" />
    <glyph glyph-name="currency" unicode="&#xa4;" horiz-adv-x="540" 
d="M476 228q0 -75 -47 -133l61 -61l-28 -28l-62 60q-57 -47 -130 -47q-75 0 -131 47l-60 -60l-29 28l61 60q-48 58 -48 134t47 132l-60 58l29 30l59 -60q56 48 132 48q74 0 132 -48l60 60l28 -30l-60 -59q46 -57 46 -131zM269 58q68 0 117.5 50.5t49.5 119.5
q0 70 -49.5 119.5t-117.5 49.5q-70 0 -117.5 -49.5t-47.5 -119.5t47.5 -120t117.5 -50z" />
    <glyph glyph-name="yen" unicode="&#xa5;" horiz-adv-x="636" 
d="M437 621h184v-21q-36 -4 -58.5 -21t-51.5 -63l-133 -213q-7 -11 -10 -25h154v-19h-157q-1 -5 -1 -17v-44h158v-20h-158v-106q0 -27 16.5 -36t63.5 -15v-21h-251v21q47 6 63.5 15t16.5 36v106h-157v20h157v44q0 7 -2 17h-155v19h148q-4 9 -12 21l-131 207q-30 47 -52.5 66
t-53.5 28v21h222v-21q-39 -8 -44.5 -24t15.5 -47l130 -206q7 -9 14 0l123 202q19 27 14.5 43t-17 22.5t-35.5 9.5v21z" />
    <glyph glyph-name="brokenbar" unicode="&#xa6;" horiz-adv-x="227" 
d="M100 451v349h27v-349h-27zM100 -215v349h27v-349h-27z" />
    <glyph glyph-name="section" unicode="&#xa7;" horiz-adv-x="490" 
d="M364 87q88 -48 88 -130q0 -79 -65 -118t-158 -39q-97 0 -170 45q-19 47 -17.5 90.5t21.5 43.5q10 0 14 -11q24 -66 72.5 -103t111.5 -36q51 1 80.5 25.5t29.5 73.5q0 14 -2 25.5t-8.5 21.5t-11 17.5t-16.5 15t-17.5 11.5t-22.5 11t-23 9t-26.5 9t-25.5 9
q-85 30 -131.5 70.5t-46.5 106.5q0 84 85 116q-82 51 -82 134q0 68 54 110.5t149 42.5q92 0 159 -42q19 -47 18 -90.5t-21 -43.5q-11 0 -13 11q-22 66 -68 101.5t-102 35.5q-52 0 -77 -28.5t-25 -69.5q0 -51 34 -78.5t100 -49.5q99 -34 134 -57q70 -45 70 -119
q0 -87 -91 -120zM115 261q0 -51 33 -77.5t101 -50.5q73 -26 89 -33q36 25 36 78q0 28 -10.5 49t-33 35t-43 22t-54.5 19q-9 3 -13 4q-44 15 -73 31q-32 -26 -32 -77z" />
    <glyph glyph-name="dieresis" unicode="&#xa8;" horiz-adv-x="384" 
d="M100 568q-20 0 -35 15.5t-15 35.5t15 35t35 15t35 -15t15 -35t-15 -35.5t-35 -15.5zM284 568q-20 0 -35 15.5t-15 35.5t15 35t35 15t35 -15t15 -35t-15 -35.5t-35 -15.5z" />
    <glyph glyph-name="copyright" unicode="&#xa9;" horiz-adv-x="720" 
d="M360 -10q-141 0 -235.5 92.5t-94.5 231.5q0 138 94.5 230.5t235.5 92.5t235.5 -92.5t94.5 -230.5q0 -139 -94.5 -231.5t-235.5 -92.5zM360 17q129 0 215.5 85t86.5 212q0 126 -86.5 211.5t-215.5 85.5t-215 -85.5t-86 -211.5q0 -127 86 -212t215 -85zM369 123
q-80 0 -137 49.5t-57 135.5q0 89 59 138t139 49q62 0 104 -30.5t42 -69.5q0 -20 -11 -34.5t-35 -14.5q-22 0 -34.5 14t-12.5 31q0 79 -65 79q-43 0 -67.5 -33.5t-24.5 -93.5q0 -75 42.5 -121t106.5 -46q52 0 85 41l17 -13q-15 -30 -53.5 -55.5t-97.5 -25.5z" />
    <glyph glyph-name="ordfeminine" unicode="&#xaa;" horiz-adv-x="358" 
d="M129 334q-39 -1 -62.5 16.5t-23.5 52.5q0 39 37.5 62t145.5 38v14q0 85 -63 85q-16 0 -25.5 -2.5t-13 -9t-4.5 -11t-1 -14.5q0 -20 -6 -29.5t-26 -9.5q-28 0 -28 26q0 30 34.5 49t82.5 19q105 0 105 -102v-125q0 -18 9 -25t23 0v-19q-30 -12 -59.5 2t-27.5 47
q-10 -24 -37 -43.5t-60 -20.5zM143 363q31 0 57 27t26 57v38q-41 -6 -68 -16t-38.5 -22t-15 -21.5t-3.5 -21.5q0 -19 11.5 -30t30.5 -11zM54 243v27h249v-27h-249z" />
    <glyph glyph-name="guillemotleft" unicode="&#xab;" horiz-adv-x="398" 
d="M50 297l138 121l14 -11l-78 -110l78 -111l-14 -11zM196 297l138 121l14 -11l-78 -110l78 -111l-14 -11z" />
    <glyph glyph-name="logicalnot" unicode="&#xac;" horiz-adv-x="527" 
d="M450 143v199h-400v27h427v-226h-27z" />
    <glyph glyph-name="uni00AD" unicode="&#xad;" horiz-adv-x="370" 
d="M50 249v26h270v-26h-270z" />
    <glyph glyph-name="registered" unicode="&#xae;" horiz-adv-x="720" 
d="M360 -10q-141 0 -235.5 92.5t-94.5 231.5q0 138 94.5 230.5t235.5 92.5t235.5 -92.5t94.5 -230.5q0 -139 -94.5 -231.5t-235.5 -92.5zM360 17q129 0 215.5 85t86.5 212q0 126 -86.5 211.5t-215.5 85.5t-215 -85.5t-86 -211.5q0 -127 86 -212t215 -85zM179 125v18
q39 6 39 37v267q0 31 -39 37v18h191q68 0 108 -27t40 -76q0 -70 -93 -94q-3 -1 -3 -3.5t3 -3.5q54 -13 72 -76q7 -26 11.5 -39t15 -26.5t23.5 -13.5v-18h-32q-42 0 -63.5 23t-40.5 80q-20 60 -73 60q-29 0 -39.5 -7.5t-10.5 -24.5v-76q0 -31 40 -37v-18h-149zM322 315h45
q78 0 78 83q0 77 -70 77h-60q-27 0 -27 -28v-100q0 -17 7.5 -24.5t26.5 -7.5z" />
    <glyph glyph-name="macron" unicode="&#xaf;" horiz-adv-x="439" 
d="M74 587q-16 0 -16 14v9q0 14 16 14h291q16 0 16 -14v-9q0 -14 -16 -14h-291z" />
    <glyph glyph-name="degree" unicode="&#xb0;" horiz-adv-x="276" 
d="M138 427q-46 0 -77 30.5t-31 74.5t30.5 74.5t77.5 30.5t77.5 -30.5t30.5 -74.5t-31 -74.5t-77 -30.5zM138 457q30 0 51 21.5t21 53.5t-21 53.5t-51 21.5t-51 -21t-21 -54t21 -54t51 -21z" />
    <glyph glyph-name="plusminus" unicode="&#xb1;" horiz-adv-x="470" 
d="M249 366h171v-27h-171v-172h-27v172h-172v27h172v172h27v-172zM50 0v27h370v-27h-370z" />
    <glyph glyph-name="uni00B2" unicode="&#xb2;" horiz-adv-x="288" 
d="M40 379q6 25 16.5 44.5t28 35.5t27.5 23t30 20q15 10 22 15t14.5 17.5t7.5 27.5q0 20 -9.5 35t-30.5 15q-16 0 -28 -10.5t-12 -30.5q0 -6 2.5 -16t0.5 -17q-20 -17 -38.5 -10t-18.5 32q0 27 25 50t71 23q43 0 67 -19.5t24 -51.5q0 -17 -6 -31t-19.5 -25t-22 -16.5
t-25.5 -15.5q-70 -35 -85 -55h102q26 0 40 21h25l-10 -47q-3 -14 -21 -14h-177z" />
    <glyph glyph-name="uni00B3" unicode="&#xb3;" horiz-adv-x="278" 
d="M132 374q-43 0 -70 21.5t-27 53.5q0 28 24 28q14 0 19 -6t6.5 -19.5t2.5 -17.5q14 -39 48 -39q22 0 35 16.5t13 44.5q0 35 -23.5 44t-48.5 -6l-9 18l16 6q49 18 49 52q0 42 -36 42q-27 0 -35 -22.5t-1 -43.5q-23 -10 -35.5 -2t-12.5 26q0 26 23.5 44.5t63.5 18.5
q39 0 62 -17.5t23 -42.5q0 -37 -48 -53q32 -1 49.5 -19t17.5 -44q0 -36 -30.5 -59.5t-75.5 -23.5z" />
    <glyph glyph-name="acute" unicode="&#xb4;" horiz-adv-x="281" 
d="M53 532q-6 11 8 25l99 105q35 38 63 8q12 -10 6.5 -29.5t-30.5 -34.5l-117 -71q-23 -12 -29 -3z" />
    <glyph glyph-name="paragraph" unicode="&#xb6;" horiz-adv-x="737" 
d="M293 -93v20q34 7 47.5 16.5t13.5 35.5v185q0 28 -12.5 40.5t-42.5 12.5h-39q-108 0 -169 56t-61 149t60.5 146t169.5 53h447v-20q-34 -7 -47 -16.5t-13 -35.5v-570q0 -26 13 -35.5t47 -16.5v-20h-414zM500 -73q56 0 56 52v570q0 52 -56 52q-55 0 -55 -52v-570
q0 -52 55 -52z" />
    <glyph glyph-name="periodcentered" unicode="&#xb7;" horiz-adv-x="209" 
d="M104 243q-22 0 -38 16t-16 39q0 22 16 38t38 16t38.5 -16t16.5 -38q0 -23 -16 -39t-39 -16z" />
    <glyph glyph-name="cedilla" unicode="&#xb8;" horiz-adv-x="248" 
d="M120 -208q-49 0 -77 18.5t-28 44.5q0 24 19.5 32t38.5 -9q0 -66 44 -66q27 0 43.5 21t16.5 49q0 23 -13 38t-35 15q-12 0 -26.5 -5t-19.5 -5q-11 0 -14 7.5t3 18.5l24 49h53l-23 -48q39 10 73 -11.5t34 -60.5q0 -40 -33.5 -64t-79.5 -24z" />
    <glyph glyph-name="uni00B9" unicode="&#xb9;" horiz-adv-x="174" 
d="M32 379v14l6 3q7 2 8.5 2.5t6.5 3.5t6.5 6t3.5 8t2 11v154h-35v16l63 31q21 11 21 -15v-186q0 -5 1 -9.5t3 -7.5t4 -5t5.5 -4.5t5 -3t6 -2.5t5.5 -2v-14h-112z" />
    <glyph glyph-name="ordmasculine" unicode="&#xba;" horiz-adv-x="356" 
d="M178 335q-56 0 -95.5 39t-39.5 103q0 65 39.5 103.5t95.5 39.5q57 1 96.5 -38.5t39.5 -104.5q0 -64 -39.5 -103t-96.5 -39zM191 355q30 0 48.5 26.5t18.5 76.5q0 59 -27 100.5t-64 41.5q-30 0 -49 -27.5t-19 -78.5q0 -57 27 -98t65 -41zM54 243v27h249v-27h-249z" />
    <glyph glyph-name="guillemotright" unicode="&#xbb;" horiz-adv-x="398" 
d="M202 297l-139 -122l-13 11l78 111l-78 110l13 11zM348 297l-139 -122l-13 11l78 111l-78 110l13 11z" />
    <glyph glyph-name="onequarter" unicode="&#xbc;" horiz-adv-x="596" 
d="M19 -5l440 641h44l-439 -641h-45zM32 379v14l6 3q7 2 8.5 2.5t6.5 3.5t6.5 6t3.5 8t2 11v154h-35v16l63 31q21 11 21 -15v-186q0 -5 1 -9.5t3 -7.5t4 -5t5.5 -4.5t5 -3t6 -2.5t5.5 -2v-14h-112zM433 0v14q21 2 28 8.5t7 25.5v20h-106v30l123 155l34 -9v-153h37v-23h-37
v-20q0 -18 8 -25t29 -9v-14h-123zM401 91h67v87z" />
    <glyph glyph-name="onehalf" unicode="&#xbd;" horiz-adv-x="625" 
d="M19 -5l440 641h44l-439 -641h-45zM32 379v14l6 3q7 2 8.5 2.5t6.5 3.5t6.5 6t3.5 8t2 11v154h-35v16l63 31q21 11 21 -15v-186q0 -5 1 -9.5t3 -7.5t4 -5t5.5 -4.5t5 -3t6 -2.5t5.5 -2v-14h-112zM377 0q6 25 16.5 44.5t28 35.5t27.5 23t30 20q15 10 22 15t14.5 17.5
t7.5 27.5q0 20 -9.5 35t-30.5 15q-16 0 -28 -10.5t-12 -30.5q0 -6 2.5 -16t0.5 -17q-20 -17 -38.5 -10t-18.5 32q0 27 25 50t71 23q43 0 67 -19.5t24 -51.5q0 -17 -6 -31t-19.5 -25t-22 -16.5t-25.5 -15.5q-70 -35 -85 -55h102q26 0 40 21h25l-10 -47q-3 -14 -21 -14h-177z
" />
    <glyph glyph-name="threequarters" unicode="&#xbe;" horiz-adv-x="705" 
d="M131 -5l440 641h44l-438 -641h-46zM132 374q-43 0 -70 21.5t-27 53.5q0 28 24 28q14 0 19 -6t6.5 -19.5t2.5 -17.5q14 -39 48 -39q22 0 35 16.5t13 44.5q0 35 -23.5 44t-48.5 -6l-9 18l16 6q49 18 49 52q0 42 -36 42q-27 0 -35 -22.5t-1 -43.5q-23 -10 -35.5 -2t-12.5 26
q0 26 23.5 44.5t63.5 18.5q39 0 62 -17.5t23 -42.5q0 -37 -48 -53q32 -1 49.5 -19t17.5 -44q0 -36 -30.5 -59.5t-75.5 -23.5zM542 0v14q22 2 29 8.5t7 25.5v20h-107v30l123 155l34 -9v-153h37v-23h-37v-20q0 -18 8 -25t29 -9v-14h-123zM510 91h68v87z" />
    <glyph glyph-name="questiondown" unicode="&#xbf;" horiz-adv-x="457" 
d="M231 559q22 0 38 -16.5t16 -38.5t-16 -38t-38 -16q-23 0 -39 16t-16 38t16 38.5t39 16.5zM247 379q4 -54 -7 -96.5t-29 -68.5t-37 -48.5t-32.5 -50t-13.5 -59.5q0 -50 31 -79t80 -29q47 0 70.5 28t23.5 66q0 15 -10.5 40.5t-10.5 39.5q0 16 15 29t35 13q25 0 42.5 -24
t17.5 -60q0 -72 -55.5 -118t-146.5 -46q-86 0 -135.5 41t-49.5 109q0 39 17 69t42.5 51.5t51 45t45 61t23.5 86.5h33z" />
    <glyph glyph-name="Agrave" unicode="&#xc0;" horiz-adv-x="713" 
d="M392 702q-7 -10 -29 3l-117 71q-25 15 -30.5 34.5t6.5 29.5q27 29 62 -8l99 -105q15 -14 9 -25zM20 0v21q35 7 54 22.5t35 50.5l193 451q20 46 20 76l57 6l220 -508q24 -56 40.5 -74.5t53.5 -23.5v-21h-225v21q44 7 52 22.5t-7 44.5l-29 65q-17 36 -58 36h-194
q-44 0 -57 -30l-29 -66q-25 -61 64 -72v-21h-190zM226 220h204q10 0 15.5 7t0.5 18l-108 251q-10 24 -20 -1l-106 -248q-5 -13 -1 -20t15 -7z" />
    <glyph glyph-name="Aacute" unicode="&#xc1;" horiz-adv-x="713" 
d="M318 702q-6 11 8 25l99 105q35 38 63 8q12 -10 6.5 -29.5t-30.5 -34.5l-117 -71q-23 -12 -29 -3zM20 0v21q35 7 54 22.5t35 50.5l193 451q20 46 20 76l57 6l220 -508q24 -56 40.5 -74.5t53.5 -23.5v-21h-225v21q44 7 52 22.5t-7 44.5l-29 65q-17 36 -58 36h-194
q-44 0 -57 -30l-29 -66q-25 -61 64 -72v-21h-190zM226 220h204q10 0 15.5 7t0.5 18l-108 251q-10 24 -20 -1l-106 -248q-5 -13 -1 -20t15 -7z" />
    <glyph glyph-name="Acircumflex" unicode="&#xc2;" horiz-adv-x="713" 
d="M347 858l121 -138l-11 -14l-110 78l-111 -78l-11 14zM20 0v21q35 7 54 22.5t35 50.5l193 451q20 46 20 76l57 6l220 -508q24 -56 40.5 -74.5t53.5 -23.5v-21h-225v21q44 7 52 22.5t-7 44.5l-29 65q-17 36 -58 36h-194q-44 0 -57 -30l-29 -66q-25 -61 64 -72v-21h-190z
M226 220h204q10 0 15.5 7t0.5 18l-108 251q-10 24 -20 -1l-106 -248q-5 -13 -1 -20t15 -7z" />
    <glyph glyph-name="Atilde" unicode="&#xc3;" horiz-adv-x="713" 
d="M424 720q-43 0 -105.5 31.5t-81.5 31.5q-17 0 -29.5 -12t-12.5 -34h-22q0 50 27.5 77.5t68.5 27.5q42 0 104.5 -31.5t82.5 -31.5q18 0 30 12.5t12 33.5h22q0 -50 -27.5 -77.5t-68.5 -27.5zM20 0v21q35 7 54 22.5t35 50.5l193 451q20 46 20 76l57 6l220 -508
q24 -56 40.5 -74.5t53.5 -23.5v-21h-225v21q44 7 52 22.5t-7 44.5l-29 65q-17 36 -58 36h-194q-44 0 -57 -30l-29 -66q-25 -61 64 -72v-21h-190zM226 220h204q10 0 15.5 7t0.5 18l-108 251q-10 24 -20 -1l-106 -248q-5 -13 -1 -20t15 -7z" />
    <glyph glyph-name="Adieresis" unicode="&#xc4;" horiz-adv-x="713" 
d="M254 738q-20 0 -35 15.5t-15 35.5t15 35t35 15t35 -15t15 -35t-15 -35.5t-35 -15.5zM438 738q-20 0 -35 15.5t-15 35.5t15 35t35 15t35 -15t15 -35t-15 -35.5t-35 -15.5zM20 0v21q35 7 54 22.5t35 50.5l193 451q20 46 20 76l57 6l220 -508q24 -56 40.5 -74.5t53.5 -23.5
v-21h-225v21q44 7 52 22.5t-7 44.5l-29 65q-17 36 -58 36h-194q-44 0 -57 -30l-29 -66q-25 -61 64 -72v-21h-190zM226 220h204q10 0 15.5 7t0.5 18l-108 251q-10 24 -20 -1l-106 -248q-5 -13 -1 -20t15 -7z" />
    <glyph glyph-name="Aring" unicode="&#xc5;" horiz-adv-x="713" 
d="M346 721q-38 0 -63 26t-25 61q0 37 25 62t63 25t63.5 -25.5t25.5 -61.5q0 -35 -25.5 -61t-63.5 -26zM346 757q21 0 35 14t14 37q0 22 -14 36.5t-35 14.5t-35 -14.5t-14 -36.5q0 -23 14 -37t35 -14zM20 0v21q35 7 54 22.5t35 50.5l193 451q20 46 20 76l57 6l220 -508
q24 -56 40.5 -74.5t53.5 -23.5v-21h-225v21q44 7 52 22.5t-7 44.5l-29 65q-17 36 -58 36h-194q-44 0 -57 -30l-29 -66q-25 -61 64 -72v-21h-190zM226 220h204q10 0 15.5 7t0.5 18l-108 251q-10 24 -20 -1l-106 -248q-5 -13 -1 -20t15 -7z" />
    <glyph glyph-name="AE" unicode="&#xc6;" horiz-adv-x="939" 
d="M901 121h19q-23 -44 -30 -107q-2 -14 -16 -14h-467v21q33 6 46.5 15.5t13.5 35.5v115h-216q-37 0 -50 -21l-42 -68q-40 -64 52 -77v-21h-191v21q35 7 56.5 24t44.5 55l271 428q17 26 21.5 47.5t-3.5 23.5q-1 1 -3 1v21h453q15 0 16 -12q6 -51 19 -109h-19
q-19 47 -48.5 70t-79.5 23h-128q-32 0 -47 -10t-15 -37v-171q0 -27 14.5 -36t47.5 -9h98q43 0 59.5 17t23.5 55h15v-173h-15q-7 38 -23.5 55.5t-59.5 17.5h-98q-33 0 -47.5 -9.5t-14.5 -35.5v-181q0 -28 19.5 -38t74.5 -9l114 1q50 1 73 14.5t38 39.5zM262 216h205v333
q0 17 -6 28l-212 -336q-7 -13 -3 -19t16 -6z" />
    <glyph glyph-name="Ccedilla" unicode="&#xc7;" horiz-adv-x="639" 
d="M353 -10h-2l-18 -38q39 10 73 -11.5t34 -60.5q0 -40 -33.5 -64t-79.5 -24q-49 0 -77 18.5t-28 44.5q0 24 19 32t39 -9q0 -66 44 -66q27 0 43.5 21t16.5 49q0 23 -13 38t-35 15q-12 0 -26.5 -5t-19.5 -5q-11 0 -14 7.5t3 18.5l21 43q-115 17 -192.5 102.5t-77.5 216.5
q0 148 97.5 236t233.5 88q105 0 170.5 -50t65.5 -109q0 -27 -15.5 -44.5t-41.5 -17.5q-23 0 -38 16t-17 46q-4 50 -43 88.5t-114 38.5q-93 0 -150 -65.5t-57 -178.5q0 -137 83.5 -223t205.5 -86q102 0 180 87l14 -12q-27 -49 -91.5 -93t-159.5 -44z" />
    <glyph glyph-name="Egrave" unicode="&#xc8;" horiz-adv-x="562" 
d="M329 702q-7 -10 -29 3l-117 71q-25 15 -30.5 34.5t6.5 29.5q27 29 62 -8l99 -105q15 -14 9 -25zM30 0v21q33 6 46.5 15.5t13.5 35.5v477q0 26 -13.5 35.5t-46.5 15.5v21h454q14 0 15 -12q6 -52 20 -109h-19q-19 47 -49 70t-80 23h-128q-32 0 -47 -10t-15 -37v-171
q0 -27 14.5 -36t47.5 -9h99q43 0 59 16.5t23 55.5h16v-173h-16q-7 38 -23 55.5t-59 17.5h-99q-32 0 -47 -9.5t-15 -35.5v-181q0 -28 19.5 -38t74.5 -9l115 1q50 1 72.5 14.5t37.5 39.5l24 37h20q-22 -40 -30 -107q-2 -14 -16 -14h-468z" />
    <glyph glyph-name="Eacute" unicode="&#xc9;" horiz-adv-x="562" 
d="M255 702q-6 11 8 25l99 105q35 38 63 8q12 -10 6.5 -29.5t-30.5 -34.5l-117 -71q-23 -12 -29 -3zM30 0v21q33 6 46.5 15.5t13.5 35.5v477q0 26 -13.5 35.5t-46.5 15.5v21h454q14 0 15 -12q6 -52 20 -109h-19q-19 47 -49 70t-80 23h-128q-32 0 -47 -10t-15 -37v-171
q0 -27 14.5 -36t47.5 -9h99q43 0 59 16.5t23 55.5h16v-173h-16q-7 38 -23 55.5t-59 17.5h-99q-32 0 -47 -9.5t-15 -35.5v-181q0 -28 19.5 -38t74.5 -9l115 1q50 1 72.5 14.5t37.5 39.5l24 37h20q-22 -40 -30 -107q-2 -14 -16 -14h-468z" />
    <glyph glyph-name="Ecircumflex" unicode="&#xca;" horiz-adv-x="562" 
d="M284 858l121 -138l-11 -14l-110 78l-111 -78l-11 14zM30 0v21q33 6 46.5 15.5t13.5 35.5v477q0 26 -13.5 35.5t-46.5 15.5v21h454q14 0 15 -12q6 -52 20 -109h-19q-19 47 -49 70t-80 23h-128q-32 0 -47 -10t-15 -37v-171q0 -27 14.5 -36t47.5 -9h99q43 0 59 16.5t23 55.5
h16v-173h-16q-7 38 -23 55.5t-59 17.5h-99q-32 0 -47 -9.5t-15 -35.5v-181q0 -28 19.5 -38t74.5 -9l115 1q50 1 72.5 14.5t37.5 39.5l24 37h20q-22 -40 -30 -107q-2 -14 -16 -14h-468z" />
    <glyph glyph-name="Edieresis" unicode="&#xcb;" horiz-adv-x="562" 
d="M192 738q-20 0 -35 15.5t-15 35.5t15 35t35 15t35 -15t15 -35t-15 -35.5t-35 -15.5zM376 738q-20 0 -35 15.5t-15 35.5t15 35t35 15t35 -15t15 -35t-15 -35.5t-35 -15.5zM30 0v21q33 6 46.5 15.5t13.5 35.5v477q0 26 -13.5 35.5t-46.5 15.5v21h454q14 0 15 -12
q6 -52 20 -109h-19q-19 47 -49 70t-80 23h-128q-32 0 -47 -10t-15 -37v-171q0 -27 14.5 -36t47.5 -9h99q43 0 59 16.5t23 55.5h16v-173h-16q-7 38 -23 55.5t-59 17.5h-99q-32 0 -47 -9.5t-15 -35.5v-181q0 -28 19.5 -38t74.5 -9l115 1q50 1 72.5 14.5t37.5 39.5l24 37h20
q-22 -40 -30 -107q-2 -14 -16 -14h-468z" />
    <glyph glyph-name="Igrave" unicode="&#xcc;" horiz-adv-x="272" 
d="M180 702q-7 -10 -29 3l-117 71q-26 15 -31 34.5t7 29.5q27 29 62 -8l99 -105q15 -14 9 -25zM30 0v21q33 6 46.5 15.5t13.5 35.5v477q0 26 -13.5 35.5t-46.5 15.5v21h212v-21q-34 -6 -47.5 -15.5t-13.5 -35.5v-477q0 -26 13.5 -35.5t47.5 -15.5v-21h-212z" />
    <glyph glyph-name="Iacute" unicode="&#xcd;" horiz-adv-x="272" 
d="M106 702q-6 11 8 25l99 105q35 38 63 8q12 -10 6.5 -29.5t-30.5 -34.5l-117 -71q-23 -12 -29 -3zM30 0v21q33 6 46.5 15.5t13.5 35.5v477q0 26 -13.5 35.5t-46.5 15.5v21h212v-21q-34 -6 -47.5 -15.5t-13.5 -35.5v-477q0 -26 13.5 -35.5t47.5 -15.5v-21h-212z" />
    <glyph glyph-name="Icircumflex" unicode="&#xce;" horiz-adv-x="272" 
d="M135 858l121 -138l-11 -14l-110 78l-111 -78l-11 14zM30 0v21q33 6 46.5 15.5t13.5 35.5v477q0 26 -13.5 35.5t-46.5 15.5v21h212v-21q-34 -6 -47.5 -15.5t-13.5 -35.5v-477q0 -26 13.5 -35.5t47.5 -15.5v-21h-212z" />
    <glyph glyph-name="Idieresis" unicode="&#xcf;" horiz-adv-x="272" 
d="M43 738q-20 0 -35 15.5t-15 35.5t15 35t35 15t35 -15t15 -35t-15 -35.5t-35 -15.5zM227 738q-20 0 -35 15.5t-15 35.5t15 35t35 15t35 -15t15 -35t-15 -35.5t-35 -15.5zM30 0v21q33 6 46.5 15.5t13.5 35.5v477q0 26 -13.5 35.5t-46.5 15.5v21h212v-21q-34 -6 -47.5 -15.5
t-13.5 -35.5v-477q0 -26 13.5 -35.5t47.5 -15.5v-21h-212z" />
    <glyph glyph-name="Eth" unicode="&#xd0;" horiz-adv-x="641" 
d="M264 621q68 0 125.5 -15.5t106.5 -49t77 -95t28 -145.5q0 -80 -26 -141.5t-71.5 -98.5t-103 -55.5t-124.5 -18.5q-19 0 -70.5 2.5t-72.5 2.5q-44 0 -103 -7v21q33 6 46.5 15.5t13.5 35.5v227h-59v23h59v228q0 25 -13.5 34.5t-46.5 15.5v21h234zM269 28q84 0 139 41
t76.5 103t21.5 144q0 60 -12.5 108.5t-40 87.5t-75.5 60.5t-113 21.5h-22q-32 0 -47 -9t-15 -34v-229h123v-23h-123v-227q0 -44 88 -44z" />
    <glyph glyph-name="Ntilde" unicode="&#xd1;" horiz-adv-x="652" 
d="M397 720q-43 0 -105.5 31.5t-81.5 31.5q-17 0 -29.5 -12t-12.5 -34h-22q0 50 27.5 77.5t68.5 27.5q42 0 104.5 -31.5t82.5 -31.5q17 0 29.5 12.5t12.5 33.5h22q0 -50 -27.5 -77.5t-68.5 -27.5zM30 0v21q34 6 48 15.5t14 35.5v477q0 26 -14 35.5t-48 15.5v21h132l365 -476
v404q0 26 -13.5 35.5t-46.5 15.5v21h156v-21q-34 -6 -48 -15.5t-14 -35.5v-549h-34l-402 525v-453q0 -26 13.5 -35.5t46.5 -15.5v-21h-155z" />
    <glyph glyph-name="Ograve" unicode="&#xd2;" horiz-adv-x="701" 
d="M380 702q-7 -10 -29 3l-118 71q-25 15 -30.5 34.5t6.5 29.5q28 30 63 -8l99 -105q14 -14 9 -25zM344 -10q-135 0 -224.5 90t-89.5 228q0 140 94 234.5t233 94.5q135 0 224.5 -90t89.5 -227q0 -141 -94 -235.5t-233 -94.5zM370 23q82 0 140.5 64t58.5 197q0 140 -69 230
t-169 90q-82 0 -140.5 -63.5t-58.5 -195.5q0 -141 69 -231.5t169 -90.5z" />
    <glyph glyph-name="Oacute" unicode="&#xd3;" horiz-adv-x="701" 
d="M312 702q-6 11 8 25l99 105q35 38 63 8q12 -10 6.5 -29.5t-30.5 -34.5l-117 -71q-23 -12 -29 -3zM344 -10q-135 0 -224.5 90t-89.5 228q0 140 94 234.5t233 94.5q135 0 224.5 -90t89.5 -227q0 -141 -94 -235.5t-233 -94.5zM370 23q82 0 140.5 64t58.5 197q0 140 -69 230
t-169 90q-82 0 -140.5 -63.5t-58.5 -195.5q0 -141 69 -231.5t169 -90.5z" />
    <glyph glyph-name="Ocircumflex" unicode="&#xd4;" horiz-adv-x="701" 
d="M341 858l121 -138l-11 -14l-110 78l-111 -78l-11 14zM344 -10q-135 0 -224.5 90t-89.5 228q0 140 94 234.5t233 94.5q135 0 224.5 -90t89.5 -227q0 -141 -94 -235.5t-233 -94.5zM370 23q82 0 140.5 64t58.5 197q0 140 -69 230t-169 90q-82 0 -140.5 -63.5t-58.5 -195.5
q0 -141 69 -231.5t169 -90.5z" />
    <glyph glyph-name="Otilde" unicode="&#xd5;" horiz-adv-x="701" 
d="M413 720q-43 0 -105.5 31.5t-81.5 31.5q-17 0 -29.5 -12t-12.5 -34h-22q0 50 27.5 77.5t68.5 27.5q42 0 104.5 -31.5t82.5 -31.5q17 0 29.5 12.5t12.5 33.5h22q0 -50 -27.5 -77.5t-68.5 -27.5zM344 -10q-135 0 -224.5 90t-89.5 228q0 140 94 234.5t233 94.5
q135 0 224.5 -90t89.5 -227q0 -141 -94 -235.5t-233 -94.5zM370 23q82 0 140.5 64t58.5 197q0 140 -69 230t-169 90q-82 0 -140.5 -63.5t-58.5 -195.5q0 -141 69 -231.5t169 -90.5z" />
    <glyph glyph-name="Odieresis" unicode="&#xd6;" horiz-adv-x="701" 
d="M249 738q-20 0 -35 15.5t-15 35.5t15 35t35 15t35 -15t15 -35t-15 -35.5t-35 -15.5zM433 738q-20 0 -35 15.5t-15 35.5t15 35t35 15t35 -15t15 -35t-15 -35.5t-35 -15.5zM344 -10q-135 0 -224.5 90t-89.5 228q0 140 94 234.5t233 94.5q135 0 224.5 -90t89.5 -227
q0 -141 -94 -235.5t-233 -94.5zM370 23q82 0 140.5 64t58.5 197q0 140 -69 230t-169 90q-82 0 -140.5 -63.5t-58.5 -195.5q0 -141 69 -231.5t169 -90.5z" />
    <glyph glyph-name="multiply" unicode="&#xd7;" horiz-adv-x="381" 
d="M331 374l-122 -122l121 -122l-18 -19l-122 122l-121 -121l-19 18l122 122l-122 121l18 19l122 -122l122 122z" />
    <glyph glyph-name="Oslash" unicode="&#xd8;" horiz-adv-x="701" 
d="M568 559q103 -92 103 -239q0 -141 -94 -235.5t-233 -94.5q-111 0 -193 63l-41 -49l-14 11l41 49q-107 92 -107 244q0 140 94 234.5t233 94.5q113 0 198 -66l37 45l14 -11zM132 345q0 -127 58 -216l314 380q-70 95 -173 95q-82 0 -140.5 -63.5t-58.5 -195.5zM370 23
q82 0 140.5 64t58.5 197q0 121 -55 210l-313 -380q67 -91 169 -91z" />
    <glyph glyph-name="Ugrave" unicode="&#xd9;" horiz-adv-x="654" 
d="M382 702q-7 -10 -29 3l-118 71q-25 15 -30.5 34.5t6.5 29.5q28 30 63 -8l99 -105q14 -14 9 -25zM329 -10q-110 0 -177 66t-67 196v297q0 26 -13.5 35.5t-46.5 15.5v21h212v-21q-34 -6 -47.5 -15.5t-13.5 -35.5v-278q0 -119 45.5 -178.5t127.5 -59.5q79 0 130.5 54.5
t51.5 177.5v284q0 26 -14.5 35.5t-49.5 15.5v21h162v-21q-34 -6 -48 -15.5t-14 -35.5v-291q0 -129 -62 -198.5t-176 -69.5z" />
    <glyph glyph-name="Uacute" unicode="&#xda;" horiz-adv-x="654" 
d="M314 702q-6 11 8 25l99 105q35 38 63 8q12 -10 6.5 -29.5t-30.5 -34.5l-117 -71q-23 -12 -29 -3zM329 -10q-110 0 -177 66t-67 196v297q0 26 -13.5 35.5t-46.5 15.5v21h212v-21q-34 -6 -47.5 -15.5t-13.5 -35.5v-278q0 -119 45.5 -178.5t127.5 -59.5q79 0 130.5 54.5
t51.5 177.5v284q0 26 -14.5 35.5t-49.5 15.5v21h162v-21q-34 -6 -48 -15.5t-14 -35.5v-291q0 -129 -62 -198.5t-176 -69.5z" />
    <glyph glyph-name="Ucircumflex" unicode="&#xdb;" horiz-adv-x="654" 
d="M343 858l121 -138l-11 -14l-110 78l-111 -78l-11 14zM329 -10q-110 0 -177 66t-67 196v297q0 26 -13.5 35.5t-46.5 15.5v21h212v-21q-34 -6 -47.5 -15.5t-13.5 -35.5v-278q0 -119 45.5 -178.5t127.5 -59.5q79 0 130.5 54.5t51.5 177.5v284q0 26 -14.5 35.5t-49.5 15.5v21
h162v-21q-34 -6 -48 -15.5t-14 -35.5v-291q0 -129 -62 -198.5t-176 -69.5z" />
    <glyph glyph-name="Udieresis" unicode="&#xdc;" horiz-adv-x="654" 
d="M251 738q-20 0 -35 15.5t-15 35.5t15 35t35 15t35 -15t15 -35t-15 -35.5t-35 -15.5zM435 738q-20 0 -35 15.5t-15 35.5t15 35t35 15t35 -15t15 -35t-15 -35.5t-35 -15.5zM329 -10q-110 0 -177 66t-67 196v297q0 26 -13.5 35.5t-46.5 15.5v21h212v-21q-34 -6 -47.5 -15.5
t-13.5 -35.5v-278q0 -119 45.5 -178.5t127.5 -59.5q79 0 130.5 54.5t51.5 177.5v284q0 26 -14.5 35.5t-49.5 15.5v21h162v-21q-34 -6 -48 -15.5t-14 -35.5v-291q0 -129 -62 -198.5t-176 -69.5z" />
    <glyph glyph-name="Yacute" unicode="&#xdd;" horiz-adv-x="636" 
d="M284 702q-6 11 9 25l99 105q35 37 62 8q12 -10 6.5 -29.5t-30.5 -34.5l-117 -71q-22 -13 -29 -3zM193 0v21q47 6 63.5 15t16.5 36v170q0 23 -21 57l-131 207q-30 47 -52.5 66t-53.5 28v21h222v-21q-39 -8 -44.5 -24t15.5 -47l130 -206q7 -9 14 0l123 202q19 27 14.5 43
t-17 22.5t-35.5 9.5v21h184v-21q-36 -4 -58.5 -21t-51.5 -63l-133 -213q-14 -23 -14 -61v-170q0 -27 16.5 -36t63.5 -15v-21h-251z" />
    <glyph glyph-name="Thorn" unicode="&#xde;" horiz-adv-x="583" 
d="M301 505q122 0 189.5 -52t67.5 -142q0 -89 -67.5 -141t-189.5 -52h-65q-29 0 -41.5 -11.5t-13.5 -37.5q1 -24 14.5 -33t46.5 -15v-21h-212v21q33 6 46.5 15.5t13.5 35.5v477q0 26 -13.5 35.5t-46.5 15.5v21h212v-21q-33 -6 -46.5 -14.5t-14.5 -32.5q1 -48 55 -48h65z
M301 149q159 0 159 162t-159 162h-65q-30 0 -42.5 -12.5t-12.5 -40.5v-218q0 -28 12.5 -40.5t42.5 -12.5h65z" />
    <glyph glyph-name="germandbls" unicode="&#xdf;" horiz-adv-x="554" 
d="M95 -5q-39 0 -75 23v21q64 -19 64 34v384q0 82 57 131t146 49q87 0 135 -44.5t48 -108.5q0 -101 -112 -142q65 -7 110.5 -49.5t45.5 -111.5q0 -82 -70.5 -132t-191.5 -50v28q174 4 174 155q0 64 -37.5 103t-136.5 39v27q55 0 95.5 31.5t40.5 101.5q0 51 -27.5 89
t-95.5 38q-101 0 -101 -155v-385q0 -42 -17 -59t-52 -17z" />
    <glyph glyph-name="agrave" unicode="&#xe0;" horiz-adv-x="488" 
d="M284 532q-6 -9 -29 3l-117 71q-25 15 -30.5 34.5t6.5 29.5q28 30 63 -8l99 -105q14 -14 8 -25zM160 -6q-55 0 -92.5 27.5t-37.5 82.5q0 63 63 103.5t221 58.5q24 2 24 27v24q0 55 -27 86t-82 31q-84 0 -84 -73q0 -52 -44 -52q-20 0 -30.5 12.5t-10.5 33.5q0 53 57.5 79
t137.5 26q88 0 125.5 -39.5t37.5 -124.5v-229q0 -43 51 -34v-12q-20 -27 -67 -27q-62 0 -65 73q1 7 -4 7t-10 -7q-28 -34 -72 -53.5t-91 -19.5zM207 40q54 0 92.5 34.5t38.5 85.5v46q0 19 -8 28t-32 6q-182 -22 -182 -118q0 -35 23 -58.5t68 -23.5z" />
    <glyph glyph-name="aacute" unicode="&#xe1;" horiz-adv-x="488" 
d="M216 532q-6 11 8 25l99 105q35 38 63 8q12 -10 6.5 -29.5t-30.5 -34.5l-117 -71q-23 -12 -29 -3zM160 -6q-55 0 -92.5 27.5t-37.5 82.5q0 63 63 103.5t221 58.5q24 2 24 27v24q0 55 -27 86t-82 31q-84 0 -84 -73q0 -52 -44 -52q-20 0 -30.5 12.5t-10.5 33.5q0 53 57.5 79
t137.5 26q88 0 125.5 -39.5t37.5 -124.5v-229q0 -43 51 -34v-12q-20 -27 -67 -27q-62 0 -65 73q1 7 -4 7t-10 -7q-28 -34 -72 -53.5t-91 -19.5zM207 40q54 0 92.5 34.5t38.5 85.5v46q0 19 -8 28t-32 6q-182 -22 -182 -118q0 -35 23 -58.5t68 -23.5z" />
    <glyph glyph-name="acircumflex" unicode="&#xe2;" horiz-adv-x="488" 
d="M244 688l121 -138l-11 -14l-110 78l-111 -78l-11 14zM160 -6q-55 0 -92.5 27.5t-37.5 82.5q0 63 63 103.5t221 58.5q24 2 24 27v24q0 55 -27 86t-82 31q-84 0 -84 -73q0 -52 -44 -52q-20 0 -30.5 12.5t-10.5 33.5q0 53 57.5 79t137.5 26q88 0 125.5 -39.5t37.5 -124.5
v-229q0 -43 51 -34v-12q-20 -27 -67 -27q-62 0 -65 73q1 7 -4 7t-10 -7q-28 -34 -72 -53.5t-91 -19.5zM207 40q54 0 92.5 34.5t38.5 85.5v46q0 19 -8 28t-32 6q-182 -22 -182 -118q0 -35 23 -58.5t68 -23.5z" />
    <glyph glyph-name="atilde" unicode="&#xe3;" horiz-adv-x="488" 
d="M318 550q-43 0 -105.5 31.5t-81.5 31.5q-18 0 -30 -12t-12 -34h-22q0 50 27.5 77.5t68.5 27.5q42 0 104.5 -31.5t82.5 -31.5q17 0 29.5 12.5t12.5 33.5h22q0 -50 -27.5 -77.5t-68.5 -27.5zM160 -6q-55 0 -92.5 27.5t-37.5 82.5q0 63 63 103.5t221 58.5q24 2 24 27v24
q0 55 -27 86t-82 31q-84 0 -84 -73q0 -52 -44 -52q-20 0 -30.5 12.5t-10.5 33.5q0 53 57.5 79t137.5 26q88 0 125.5 -39.5t37.5 -124.5v-229q0 -43 51 -34v-12q-20 -27 -67 -27q-62 0 -65 73q1 7 -4 7t-10 -7q-28 -34 -72 -53.5t-91 -19.5zM207 40q54 0 92.5 34.5t38.5 85.5
v46q0 19 -8 28t-32 6q-182 -22 -182 -118q0 -35 23 -58.5t68 -23.5z" />
    <glyph glyph-name="adieresis" unicode="&#xe4;" horiz-adv-x="488" 
d="M152 568q-20 0 -35 15.5t-15 35.5t15 35t35 15t35 -15t15 -35t-15 -35.5t-35 -15.5zM336 568q-20 0 -35 15.5t-15 35.5t15 35t35 15t35 -15t15 -35t-15 -35.5t-35 -15.5zM160 -6q-55 0 -92.5 27.5t-37.5 82.5q0 63 63 103.5t221 58.5q24 2 24 27v24q0 55 -27 86t-82 31
q-84 0 -84 -73q0 -52 -44 -52q-20 0 -30.5 12.5t-10.5 33.5q0 53 57.5 79t137.5 26q88 0 125.5 -39.5t37.5 -124.5v-229q0 -43 51 -34v-12q-20 -27 -67 -27q-62 0 -65 73q1 7 -4 7t-10 -7q-28 -34 -72 -53.5t-91 -19.5zM207 40q54 0 92.5 34.5t38.5 85.5v46q0 19 -8 28
t-32 6q-182 -22 -182 -118q0 -35 23 -58.5t68 -23.5z" />
    <glyph glyph-name="aring" unicode="&#xe5;" horiz-adv-x="488" 
d="M244 551q-38 0 -63 26t-25 61q0 37 25 62t63 25t63.5 -25.5t25.5 -61.5q0 -35 -25.5 -61t-63.5 -26zM244 587q21 0 35 14t14 37q0 22 -14 36.5t-35 14.5t-35 -14.5t-14 -36.5q0 -23 14 -37t35 -14zM160 -6q-55 0 -92.5 27.5t-37.5 82.5q0 63 63 103.5t221 58.5
q24 2 24 27v24q0 55 -27 86t-82 31q-84 0 -84 -73q0 -52 -44 -52q-20 0 -30.5 12.5t-10.5 33.5q0 53 57.5 79t137.5 26q88 0 125.5 -39.5t37.5 -124.5v-229q0 -43 51 -34v-12q-20 -27 -67 -27q-62 0 -65 73q1 7 -4 7t-10 -7q-28 -34 -72 -53.5t-91 -19.5zM207 40
q54 0 92.5 34.5t38.5 85.5v46q0 19 -8 28t-32 6q-182 -22 -182 -118q0 -35 23 -58.5t68 -23.5z" />
    <glyph glyph-name="ae" unicode="&#xe6;" horiz-adv-x="787" 
d="M736 105l16 -13q-19 -36 -66 -67t-117 -31q-108 0 -175 76q-6 5 -11 8t-9.5 5t-9 2h-8t-7 -1.5t-5.5 -2.5t-5 -3.5t-4.5 -4t-4.5 -3.5l-2 -3q-29 -34 -74 -53.5t-94 -19.5q-55 0 -92.5 27.5t-37.5 82.5q0 63 63.5 103.5t222.5 58.5q24 2 24 27v21q0 54 -28 86.5t-84 32.5
q-81 0 -81 -73q0 -52 -44 -52q-19 0 -29.5 12t-10.5 32q0 49 60 78.5t136 29.5q106 0 138 -71q66 71 174 71q75 0 119.5 -36.5t44.5 -93.5q0 -49 -42 -70t-149 -26l-89 -4q-31 -1 -25 -42q10 -64 61 -102t120 -38q81 0 125 57zM425 300q-3 -29 4.5 -37.5t27.5 -7.5l73 1
q71 2 97 17.5t26 55.5q0 45 -25 74.5t-75 29.5q-56 0 -88.5 -35.5t-39.5 -97.5zM339 146v60q0 20 -8 28.5t-32 5.5q-182 -22 -182 -114q0 -35 24 -59t67 -24q54 0 92.5 30.5t38.5 72.5z" />
    <glyph glyph-name="ccedilla" unicode="&#xe7;" horiz-adv-x="487" 
d="M452 99q-13 -34 -55 -65.5t-103 -38.5l-21 -43q39 10 73 -11.5t34 -60.5q0 -40 -33.5 -64t-79.5 -24q-49 0 -77 18.5t-28 44.5q0 24 19 32t39 -9q0 -66 44 -66q27 0 43.5 21t16.5 49q0 23 -13 38t-35 15q-12 0 -26.5 -5t-19.5 -5q-11 0 -14 7.5t3 18.5l22 44
q-90 9 -150.5 71t-60.5 160q0 108 71 171t172 63q77 0 124.5 -36.5t47.5 -80.5q0 -21 -12.5 -34.5t-32.5 -13.5q-40 0 -44 44q-4 39 -29 66.5t-76 27.5q-64 0 -101.5 -46t-37.5 -127q0 -97 57.5 -154t143.5 -57q81 0 122 64z" />
    <glyph glyph-name="egrave" unicode="&#xe8;" horiz-adv-x="478" 
d="M287 532q-7 -10 -29 3l-117 71q-25 15 -30.5 34.5t6.5 29.5q27 29 62 -8l99 -105q15 -14 9 -25zM260 -6q-97 0 -163.5 64t-66.5 170q0 107 66.5 169.5t165.5 62.5q75 0 119.5 -36.5t44.5 -93.5q0 -49 -42 -70t-149 -26l-89 -4q-31 -1 -25 -42q10 -64 61 -102t120 -38
q81 0 125 57l16 -13q-19 -36 -66 -67t-117 -31zM148 255l73 1q71 2 97 17.5t26 55.5q0 45 -25 74.5t-75 29.5q-56 0 -88.5 -35.5t-39.5 -97.5q-3 -29 4.5 -37.5t27.5 -7.5z" />
    <glyph glyph-name="eacute" unicode="&#xe9;" horiz-adv-x="478" 
d="M213 532q-6 11 8 25l99 105q35 38 63 8q12 -10 6.5 -29.5t-30.5 -34.5l-117 -71q-23 -12 -29 -3zM260 -6q-97 0 -163.5 64t-66.5 170q0 107 66.5 169.5t165.5 62.5q75 0 119.5 -36.5t44.5 -93.5q0 -49 -42 -70t-149 -26l-89 -4q-31 -1 -25 -42q10 -64 61 -102t120 -38
q81 0 125 57l16 -13q-19 -36 -66 -67t-117 -31zM148 255l73 1q71 2 97 17.5t26 55.5q0 45 -25 74.5t-75 29.5q-56 0 -88.5 -35.5t-39.5 -97.5q-3 -29 4.5 -37.5t27.5 -7.5z" />
    <glyph glyph-name="ecircumflex" unicode="&#xea;" horiz-adv-x="478" 
d="M242 688l121 -138l-11 -14l-110 78l-111 -78l-11 14zM260 -6q-97 0 -163.5 64t-66.5 170q0 107 66.5 169.5t165.5 62.5q75 0 119.5 -36.5t44.5 -93.5q0 -49 -42 -70t-149 -26l-89 -4q-31 -1 -25 -42q10 -64 61 -102t120 -38q81 0 125 57l16 -13q-19 -36 -66 -67t-117 -31
zM148 255l73 1q71 2 97 17.5t26 55.5q0 45 -25 74.5t-75 29.5q-56 0 -88.5 -35.5t-39.5 -97.5q-3 -29 4.5 -37.5t27.5 -7.5z" />
    <glyph glyph-name="edieresis" unicode="&#xeb;" horiz-adv-x="478" 
d="M149 568q-20 0 -35 15.5t-15 35.5t15 35t35 15t35 -15t15 -35t-15 -35.5t-35 -15.5zM333 568q-20 0 -35 15.5t-15 35.5t15 35t35 15t35 -15t15 -35t-15 -35.5t-35 -15.5zM260 -6q-97 0 -163.5 64t-66.5 170q0 107 66.5 169.5t165.5 62.5q75 0 119.5 -36.5t44.5 -93.5
q0 -49 -42 -70t-149 -26l-89 -4q-31 -1 -25 -42q10 -64 61 -102t120 -38q81 0 125 57l16 -13q-19 -36 -66 -67t-117 -31zM148 255l73 1q71 2 97 17.5t26 55.5q0 45 -25 74.5t-75 29.5q-56 0 -88.5 -35.5t-39.5 -97.5q-3 -29 4.5 -37.5t27.5 -7.5z" />
    <glyph glyph-name="igrave" unicode="&#xec;" 
d="M165 532q-7 -10 -29 3l-117 71q-26 15 -31.5 34.5t6.5 29.5q29 29 63 -8l99 -105q15 -14 9 -25zM26 0v21q36 4 50 15t14 38v282q0 36 -12.5 49t-52.5 9v19l110 25q35 8 35 -29v-355q0 -27 14 -38t51 -15v-21h-209z" />
    <glyph glyph-name="iacute" unicode="&#xed;" 
d="M91 532q-6 11 8 25l99 105q35 38 63 8q12 -10 6.5 -29.5t-30.5 -34.5l-117 -71q-23 -12 -29 -3zM26 0v21q36 4 50 15t14 38v282q0 36 -12.5 49t-52.5 9v19l110 25q35 8 35 -29v-355q0 -27 14 -38t51 -15v-21h-209z" />
    <glyph glyph-name="icircumflex" unicode="&#xee;" 
d="M119 688l121 -138l-11 -14l-110 78l-111 -78l-11 14zM26 0v21q36 4 50 15t14 38v282q0 36 -12.5 49t-52.5 9v19l110 25q35 8 35 -29v-355q0 -27 14 -38t51 -15v-21h-209z" />
    <glyph glyph-name="idieresis" unicode="&#xef;" 
d="M27 568q-20 0 -35 15.5t-15 35.5t15 35t35 15t35 -15t15 -35t-15 -35.5t-35 -15.5zM211 568q-20 0 -35 15.5t-15 35.5t15 35t35 15t35 -15t15 -35t-15 -35.5t-35 -15.5zM26 0v21q36 4 50 15t14 38v282q0 36 -12.5 49t-52.5 9v19l110 25q35 8 35 -29v-355q0 -27 14 -38
t51 -15v-21h-209z" />
    <glyph glyph-name="eth" unicode="&#xf0;" horiz-adv-x="554" 
d="M228 -6q-84 0 -141 61.5t-57 162.5q0 112 64 177t154 65q25 0 50.5 -5.5t39.5 -11t26 -8.5t17 2.5t5 21.5v30q0 19 -4 47l-111 -31l-5 17l110 31q-26 66 -114 68v21q127 0 173 -73l88 25l5 -17l-84 -24q22 -46 22 -118v-362q0 -53 65 -34v-21q-36 -23 -75 -23
q-36 0 -53.5 18t-16.5 60q-64 -79 -158 -79zM273 49q44 0 78.5 24.5t34.5 78.5v142q0 67 -45 103t-102 36q-59 0 -93 -47.5t-34 -126.5q0 -91 44.5 -150.5t116.5 -59.5z" />
    <glyph glyph-name="ntilde" unicode="&#xf1;" horiz-adv-x="554" 
d="M356 550q-43 0 -105.5 31.5t-81.5 31.5q-17 0 -29.5 -12t-12.5 -34h-22q0 50 27.5 77.5t68.5 27.5q42 0 104.5 -31.5t82.5 -31.5q18 0 30 12.5t12 33.5h22q0 -50 -27.5 -77.5t-68.5 -27.5zM468 -6q-64 0 -64 71v206q0 63 -29.5 101t-83.5 38q-56 0 -88.5 -38.5
t-32.5 -100.5v-197q0 -27 14 -38t51 -15v-21h-209v21q36 4 50 15t14 38v282q0 36 -12.5 49t-52.5 9v19l110 25q35 8 35 -30q0 -45 15 -42l8 5q64 69 142 69q64 0 106.5 -41t42.5 -125v-227q0 -45 51 -34v-12q-20 -27 -67 -27z" />
    <glyph glyph-name="ograve" unicode="&#xf2;" horiz-adv-x="520" 
d="M306 532q-7 -10 -29 3l-117 71q-25 15 -30.5 34.5t6.5 29.5q27 29 62 -8l99 -105q15 -14 9 -25zM259 -6q-95 0 -162 63.5t-67 168.5t67.5 169.5t164.5 64.5q95 0 161.5 -63.5t66.5 -167.5q0 -105 -67.5 -170t-163.5 -65zM284 22q54 0 87 43.5t33 126.5q0 99 -47.5 169.5
t-120.5 70.5q-54 0 -86.5 -43t-32.5 -126q0 -100 47 -170.5t120 -70.5z" />
    <glyph glyph-name="oacute" unicode="&#xf3;" horiz-adv-x="520" 
d="M232 532q-6 11 8 25l99 105q35 38 63 8q12 -10 6.5 -29.5t-30.5 -34.5l-117 -71q-23 -12 -29 -3zM259 -6q-95 0 -162 63.5t-67 168.5t67.5 169.5t164.5 64.5q95 0 161.5 -63.5t66.5 -167.5q0 -105 -67.5 -170t-163.5 -65zM284 22q54 0 87 43.5t33 126.5q0 99 -47.5 169.5
t-120.5 70.5q-54 0 -86.5 -43t-32.5 -126q0 -100 47 -170.5t120 -70.5z" />
    <glyph glyph-name="ocircumflex" unicode="&#xf4;" horiz-adv-x="520" 
d="M261 688l121 -138l-11 -14l-110 78l-111 -78l-11 14zM259 -6q-95 0 -162 63.5t-67 168.5t67.5 169.5t164.5 64.5q95 0 161.5 -63.5t66.5 -167.5q0 -105 -67.5 -170t-163.5 -65zM284 22q54 0 87 43.5t33 126.5q0 99 -47.5 169.5t-120.5 70.5q-54 0 -86.5 -43t-32.5 -126
q0 -100 47 -170.5t120 -70.5z" />
    <glyph glyph-name="otilde" unicode="&#xf5;" horiz-adv-x="520" 
d="M338 550q-43 0 -105.5 31.5t-81.5 31.5q-17 0 -29.5 -12t-12.5 -34h-22q0 50 27.5 77.5t68.5 27.5q42 0 104.5 -31.5t82.5 -31.5q18 0 30 12.5t12 33.5h22q0 -50 -27.5 -77.5t-68.5 -27.5zM259 -6q-95 0 -162 63.5t-67 168.5t67.5 169.5t164.5 64.5q95 0 161.5 -63.5
t66.5 -167.5q0 -105 -67.5 -170t-163.5 -65zM284 22q54 0 87 43.5t33 126.5q0 99 -47.5 169.5t-120.5 70.5q-54 0 -86.5 -43t-32.5 -126q0 -100 47 -170.5t120 -70.5z" />
    <glyph glyph-name="odieresis" unicode="&#xf6;" horiz-adv-x="520" 
d="M168 568q-20 0 -35 15.5t-15 35.5t15 35t35 15t35 -15t15 -35t-15 -35.5t-35 -15.5zM352 568q-20 0 -35 15.5t-15 35.5t15 35t35 15t35 -15t15 -35t-15 -35.5t-35 -15.5zM259 -6q-95 0 -162 63.5t-67 168.5t67.5 169.5t164.5 64.5q95 0 161.5 -63.5t66.5 -167.5
q0 -105 -67.5 -170t-163.5 -65zM284 22q54 0 87 43.5t33 126.5q0 99 -47.5 169.5t-120.5 70.5q-54 0 -86.5 -43t-32.5 -126q0 -100 47 -170.5t120 -70.5z" />
    <glyph glyph-name="divide" unicode="&#xf7;" horiz-adv-x="470" 
d="M235 362q-17 0 -29.5 13t-12.5 30t12.5 29.5t29.5 12.5t29.5 -12.5t12.5 -29.5t-12.5 -30t-29.5 -13zM50 238v27h370v-27h-370zM235 56q-17 0 -29.5 13t-12.5 30t12.5 29.5t29.5 12.5t29.5 -12.5t12.5 -29.5t-12.5 -30t-29.5 -13z" />
    <glyph glyph-name="oslash" unicode="&#xf8;" horiz-adv-x="520" 
d="M419 400q71 -64 71 -171q0 -105 -67.5 -170t-163.5 -65q-78 0 -139 45l-29 -35l-14 11l29 35q-76 66 -76 176q0 105 67.5 169.5t164.5 64.5q82 0 144 -48l32 39l14 -11zM117 263q0 -89 37 -155l206 249q-49 75 -124 75q-54 0 -86.5 -43t-32.5 -126zM284 22q54 0 87 43.5
t33 126.5q0 85 -34 148l-206 -248q47 -70 120 -70z" />
    <glyph glyph-name="ugrave" unicode="&#xf9;" horiz-adv-x="559" 
d="M345 532q-7 -10 -29 3l-118 71q-25 15 -30.5 34.5t6.5 29.5q28 30 63 -8l99 -105q14 -14 9 -25zM236 -6q-62 0 -104 40.5t-42 121.5v200q0 36 -12.5 48t-52.5 10v19l110 25q35 8 35 -29v-251q0 -61 30 -98.5t84 -37.5t87 38t33 98v178q0 36 -12.5 48t-52.5 10v19l110 25
q35 8 35 -29v-362q0 -43 51 -34v-12q-20 -27 -67 -27q-58 0 -66 60q-2 12 -9 12t-13 -6l-8 -8q-7 -7 -12 -11l-15 -12t-20.5 -13t-24.5 -10.5t-30 -8.5t-34 -3z" />
    <glyph glyph-name="uacute" unicode="&#xfa;" horiz-adv-x="559" 
d="M232 532q-6 11 8 25l99 105q35 38 63 8q12 -10 6.5 -29.5t-30.5 -34.5l-117 -71q-23 -12 -29 -3zM236 -6q-62 0 -104 40.5t-42 121.5v200q0 36 -12.5 48t-52.5 10v19l110 25q35 8 35 -29v-251q0 -61 30 -98.5t84 -37.5t87 38t33 98v178q0 36 -12.5 48t-52.5 10v19l110 25
q35 8 35 -29v-362q0 -43 51 -34v-12q-20 -27 -67 -27q-58 0 -66 60q-2 12 -9 12t-13 -6l-8 -8q-7 -7 -12 -11l-15 -12t-20.5 -13t-24.5 -10.5t-30 -8.5t-34 -3z" />
    <glyph glyph-name="ucircumflex" unicode="&#xfb;" horiz-adv-x="559" 
d="M258 688l121 -138l-11 -14l-110 78l-111 -78l-11 14zM236 -6q-62 0 -104 40.5t-42 121.5v200q0 36 -12.5 48t-52.5 10v19l110 25q35 8 35 -29v-251q0 -61 30 -98.5t84 -37.5t87 38t33 98v178q0 36 -12.5 48t-52.5 10v19l110 25q35 8 35 -29v-362q0 -43 51 -34v-12
q-20 -27 -67 -27q-58 0 -66 60q-2 12 -9 12t-13 -6l-8 -8q-7 -7 -12 -11l-15 -12t-20.5 -13t-24.5 -10.5t-30 -8.5t-34 -3z" />
    <glyph glyph-name="udieresis" unicode="&#xfc;" horiz-adv-x="559" 
d="M157 568q-19 0 -34 15.5t-15 35.5t14.5 35t34.5 15t35 -15t15 -35t-15 -35.5t-35 -15.5zM341 568q-20 0 -35 15.5t-15 35.5t15 35t35 15t35 -15t15 -35t-15 -35.5t-35 -15.5zM236 -6q-62 0 -104 40.5t-42 121.5v200q0 36 -12.5 48t-52.5 10v19l110 25q35 8 35 -29v-251
q0 -61 30 -98.5t84 -37.5t87 38t33 98v178q0 36 -12.5 48t-52.5 10v19l110 25q35 8 35 -29v-362q0 -43 51 -34v-12q-20 -27 -67 -27q-58 0 -66 60q-2 12 -9 12t-13 -6l-8 -8q-7 -7 -12 -11l-15 -12t-20.5 -13t-24.5 -10.5t-30 -8.5t-34 -3z" />
    <glyph glyph-name="yacute" unicode="&#xfd;" horiz-adv-x="523" 
d="M235 532q-6 11 8 25l99 105q35 38 63 8q12 -10 6.5 -29.5t-30.5 -34.5l-117 -71q-23 -12 -29 -3zM119 -198q-37 0 -58.5 17t-21.5 44q0 22 14.5 35.5t36.5 13.5q19 0 28 -11.5t10 -25.5t6.5 -25.5t19.5 -11.5q31 0 60 74q23 59 -4 131l-120 295q-19 48 -33.5 64t-46.5 28
v21h199v-21q-41 -12 -46.5 -27.5t14.5 -64.5l89 -219q7 -15 12 -19.5t10.5 0.5t12.5 20l44 114q25 63 36 99.5t6.5 56t-15 26.5t-36.5 14v21h177v-21q-43 -12 -61.5 -28.5t-36.5 -63.5l-168 -415q-26 -63 -51.5 -92t-76.5 -29z" />
    <glyph glyph-name="thorn" unicode="&#xfe;" horiz-adv-x="541" 
d="M11 -190v21q36 4 50 15t14 38v670q0 35 -12.5 48t-52.5 9v20l110 24q35 8 35 -28v-218q0 -8 5.5 -10t13.5 6q16 20 55 37.5t85 17.5q84 0 140.5 -62t56.5 -163q0 -112 -63.5 -176.5t-151.5 -64.5q-27 0 -53.5 6.5t-41 13.5t-26 11t-16 -0.5t-4.5 -21.5v-119q0 -27 14 -38
t51 -15v-21h-209zM300 20q61 0 96.5 48t35.5 126q0 90 -45 150.5t-114 60.5q-47 0 -82.5 -28t-35.5 -95v-103q0 -77 45 -118t100 -41z" />
    <glyph glyph-name="ydieresis" unicode="&#xff;" horiz-adv-x="523" 
d="M172 568q-20 0 -35 15.5t-15 35.5t15 35t35 15t35 -15t15 -35t-15 -35.5t-35 -15.5zM356 568q-20 0 -35 15.5t-15 35.5t15 35t35 15t35 -15t15 -35t-15 -35.5t-35 -15.5zM119 -198q-37 0 -58.5 17t-21.5 44q0 22 14.5 35.5t36.5 13.5q19 0 28 -11.5t10 -25.5t6.5 -25.5
t19.5 -11.5q31 0 60 74q23 59 -4 131l-120 295q-19 48 -33.5 64t-46.5 28v21h199v-21q-41 -12 -46.5 -27.5t14.5 -64.5l89 -219q7 -15 12 -19.5t10.5 0.5t12.5 20l44 114q25 63 36 99.5t6.5 56t-15 26.5t-36.5 14v21h177v-21q-43 -12 -61.5 -28.5t-36.5 -63.5l-168 -415
q-26 -63 -51.5 -92t-76.5 -29z" />
    <glyph glyph-name="Amacron" unicode="&#x100;" horiz-adv-x="713" 
d="M212 757q-16 0 -16 14v9q0 14 16 14h291q16 0 16 -14v-9q0 -14 -16 -14h-291zM20 0v21q35 7 54 22.5t35 50.5l193 451q20 46 20 76l57 6l220 -508q24 -56 40.5 -74.5t53.5 -23.5v-21h-225v21q44 7 52 22.5t-7 44.5l-29 65q-17 36 -58 36h-194q-44 0 -57 -30l-29 -66
q-25 -61 64 -72v-21h-190zM226 220h204q10 0 15.5 7t0.5 18l-108 251q-10 24 -20 -1l-106 -248q-5 -13 -1 -20t15 -7z" />
    <glyph glyph-name="amacron" unicode="&#x101;" horiz-adv-x="488" 
d="M110 587q-16 0 -16 14v9q0 14 16 14h291q16 0 16 -14v-9q0 -14 -16 -14h-291zM160 -6q-55 0 -92.5 27.5t-37.5 82.5q0 63 63 103.5t221 58.5q24 2 24 27v24q0 55 -27 86t-82 31q-84 0 -84 -73q0 -52 -44 -52q-20 0 -30.5 12.5t-10.5 33.5q0 53 57.5 79t137.5 26
q88 0 125.5 -39.5t37.5 -124.5v-229q0 -43 51 -34v-12q-20 -27 -67 -27q-62 0 -65 73q1 7 -4 7t-10 -7q-28 -34 -72 -53.5t-91 -19.5zM207 40q54 0 92.5 34.5t38.5 85.5v46q0 19 -8 28t-32 6q-182 -22 -182 -118q0 -35 23 -58.5t68 -23.5z" />
    <glyph glyph-name="Abreve" unicode="&#x102;" horiz-adv-x="713" 
d="M346 731q-61 0 -96 34t-35 85q0 11 8 11h11q8 0 10 -8q5 -26 32.5 -45.5t69.5 -19.5t69.5 19.5t33.5 45.5q2 8 10 8h11q8 0 8 -11q0 -51 -35.5 -85t-96.5 -34zM20 0v21q35 7 54 22.5t35 50.5l193 451q20 46 20 76l57 6l220 -508q24 -56 40.5 -74.5t53.5 -23.5v-21h-225
v21q44 7 52 22.5t-7 44.5l-29 65q-17 36 -58 36h-194q-44 0 -57 -30l-29 -66q-25 -61 64 -72v-21h-190zM226 220h204q10 0 15.5 7t0.5 18l-108 251q-10 24 -20 -1l-106 -248q-5 -13 -1 -20t15 -7z" />
    <glyph glyph-name="abreve" unicode="&#x103;" horiz-adv-x="488" 
d="M244 561q-61 0 -96 34t-35 85q0 11 8 11h11q8 0 10 -8q5 -26 32.5 -45.5t69.5 -19.5t69.5 19.5t33.5 45.5q2 8 10 8h11q8 0 8 -11q0 -51 -35.5 -85t-96.5 -34zM160 -6q-55 0 -92.5 27.5t-37.5 82.5q0 63 63 103.5t221 58.5q24 2 24 27v24q0 55 -27 86t-82 31
q-84 0 -84 -73q0 -52 -44 -52q-20 0 -30.5 12.5t-10.5 33.5q0 53 57.5 79t137.5 26q88 0 125.5 -39.5t37.5 -124.5v-229q0 -43 51 -34v-12q-20 -27 -67 -27q-62 0 -65 73q1 7 -4 7t-10 -7q-28 -34 -72 -53.5t-91 -19.5zM207 40q54 0 92.5 34.5t38.5 85.5v46q0 19 -8 28
t-32 6q-182 -22 -182 -118q0 -35 23 -58.5t68 -23.5z" />
    <glyph glyph-name="Aogonek" unicode="&#x104;" horiz-adv-x="713" 
d="M598 0q-74 -50 -74 -112q0 -24 16.5 -38.5t37.5 -14.5q56 0 80 54h25q-36 -95 -127 -95q-41 0 -73.5 22t-32.5 62q0 42 32.5 73.5t76.5 48.5h-91v21q44 7 52 22.5t-7 44.5l-29 65q-17 36 -58 36h-194q-44 0 -57 -30l-29 -66q-25 -61 64 -72v-21h-190v21q35 7 54 22.5
t35 50.5l193 451q20 46 20 76l57 6l220 -508q24 -56 40.5 -74.5t53.5 -23.5v-21h-95zM430 220q10 0 15.5 7t0.5 18l-108 251q-10 24 -20 -1l-106 -248q-5 -13 -1 -20t15 -7h204z" />
    <glyph glyph-name="aogonek" unicode="&#x105;" horiz-adv-x="488" 
d="M431 -2q-103 -30 -103 -100q0 -25 14.5 -39t36.5 -14q42 0 66 57h22q-10 -35 -39.5 -66.5t-80.5 -31.5q-38 0 -65.5 19.5t-27.5 58.5q0 42 31.5 72.5t83.5 47.5q-31 18 -32 65q1 7 -4 7t-10 -7q-28 -34 -72 -53.5t-91 -19.5q-55 0 -92.5 27.5t-37.5 82.5q0 63 63 103.5
t221 58.5q24 2 24 27v24q0 55 -27 86t-82 31q-84 0 -84 -73q0 -52 -44 -52q-20 0 -30.5 12.5t-10.5 33.5q0 53 57.5 79t137.5 26q88 0 125.5 -39.5t37.5 -124.5v-229q0 -43 51 -34v-12q-12 -15 -38 -23zM338 160v46q0 19 -8 28t-32 6q-182 -22 -182 -118q0 -35 23 -58.5
t68 -23.5q54 0 92.5 34.5t38.5 85.5z" />
    <glyph glyph-name="Cacute" unicode="&#x106;" horiz-adv-x="639" 
d="M309 702q-6 11 8 25l99 105q35 38 63 8q12 -10 6.5 -29.5t-30.5 -34.5l-117 -71q-23 -12 -29 -3zM353 -10q-132 0 -227.5 88t-95.5 235q0 148 97.5 236t233.5 88q105 0 170.5 -50t65.5 -109q0 -27 -15.5 -44.5t-41.5 -17.5q-23 0 -38 16t-17 46q-4 50 -43 88.5t-114 38.5
q-93 0 -150 -65.5t-57 -178.5q0 -137 83.5 -223t205.5 -86q102 0 180 87l14 -12q-27 -49 -91.5 -93t-159.5 -44z" />
    <glyph glyph-name="cacute" unicode="&#x107;" horiz-adv-x="487" 
d="M242 532q-6 11 8 25l99 105q35 38 63 8q12 -10 6.5 -29.5t-30.5 -34.5l-117 -71q-23 -12 -29 -3zM266 -6q-99 0 -167.5 63t-68.5 169q0 108 71 171t172 63q77 0 124.5 -36.5t47.5 -80.5q0 -21 -12.5 -34.5t-32.5 -13.5q-40 0 -44 44q-4 39 -29 66.5t-76 27.5
q-64 0 -101.5 -46t-37.5 -127q0 -97 57.5 -154t143.5 -57q81 0 122 64l17 -14q-16 -39 -65 -72t-121 -33z" />
    <glyph glyph-name="Cdotaccent" unicode="&#x10a;" horiz-adv-x="639" 
d="M337 738q-20 0 -35 15.5t-15 35.5t15 35t35 15t35 -15t15 -35t-15 -35.5t-35 -15.5zM353 -10q-132 0 -227.5 88t-95.5 235q0 148 97.5 236t233.5 88q105 0 170.5 -50t65.5 -109q0 -27 -15.5 -44.5t-41.5 -17.5q-23 0 -38 16t-17 46q-4 50 -43 88.5t-114 38.5
q-93 0 -150 -65.5t-57 -178.5q0 -137 83.5 -223t205.5 -86q102 0 180 87l14 -12q-27 -49 -91.5 -93t-159.5 -44z" />
    <glyph glyph-name="cdotaccent" unicode="&#x10b;" horiz-adv-x="487" 
d="M271 568q-20 0 -35 15.5t-15 35.5t15 35t35 15t35 -15t15 -35t-15 -35.5t-35 -15.5zM266 -6q-99 0 -167.5 63t-68.5 169q0 108 71 171t172 63q77 0 124.5 -36.5t47.5 -80.5q0 -21 -12.5 -34.5t-32.5 -13.5q-40 0 -44 44q-4 39 -29 66.5t-76 27.5q-64 0 -101.5 -46
t-37.5 -127q0 -97 57.5 -154t143.5 -57q81 0 122 64l17 -14q-16 -39 -65 -72t-121 -33z" />
    <glyph glyph-name="Ccaron" unicode="&#x10c;" horiz-adv-x="639" 
d="M338 704l-122 138l11 13l111 -78l110 78l11 -13zM353 -10q-132 0 -227.5 88t-95.5 235q0 148 97.5 236t233.5 88q105 0 170.5 -50t65.5 -109q0 -27 -15.5 -44.5t-41.5 -17.5q-23 0 -38 16t-17 46q-4 50 -43 88.5t-114 38.5q-93 0 -150 -65.5t-57 -178.5q0 -137 83.5 -223
t205.5 -86q102 0 180 87l14 -12q-27 -49 -91.5 -93t-159.5 -44z" />
    <glyph glyph-name="ccaron" unicode="&#x10d;" horiz-adv-x="487" 
d="M271 534l-122 138l11 13l111 -78l110 78l11 -13zM266 -6q-99 0 -167.5 63t-68.5 169q0 108 71 171t172 63q77 0 124.5 -36.5t47.5 -80.5q0 -21 -12.5 -34.5t-32.5 -13.5q-40 0 -44 44q-4 39 -29 66.5t-76 27.5q-64 0 -101.5 -46t-37.5 -127q0 -97 57.5 -154t143.5 -57
q81 0 122 64l17 -14q-16 -39 -65 -72t-121 -33z" />
    <glyph glyph-name="Dcaron" unicode="&#x10e;" horiz-adv-x="641" 
d="M316 704l-122 138l11 13l111 -78l110 78l11 -13zM30 0v21q33 6 46.5 15.5t13.5 35.5v478q0 25 -13.5 34.5t-46.5 15.5v21h234q68 0 125.5 -15.5t106.5 -49t77 -95t28 -145.5q0 -80 -26 -141.5t-71.5 -98.5t-103 -55.5t-124.5 -18.5q-19 0 -70.5 2.5t-72.5 2.5
q-44 0 -103 -7zM269 28q84 0 139 41t76.5 103t21.5 144q0 60 -12.5 108.5t-40 87.5t-75.5 60.5t-113 21.5h-22q-32 0 -47 -9t-15 -34v-479q0 -44 88 -44z" />
    <glyph glyph-name="dcaron" unicode="&#x10f;" horiz-adv-x="569" 
d="M522 484q-7 0 -12.5 5.5t-5.5 12.5l4 119q2 39 33 39q20 0 30.5 -13t2.5 -38l-33 -107q-7 -18 -19 -18zM223 -6q-82 0 -137.5 64t-55.5 166q0 109 64.5 172.5t155.5 63.5q25 0 50 -5.5t39 -11t26 -8.5t16.5 2.5t4.5 21.5v95q0 35 -12.5 48t-52.5 9v20l110 24q35 8 35 -28
v-560q0 -43 51 -34v-12q-19 -27 -66 -27q-49 0 -63 46q-4 15 -18 15q-10 0 -29 -15t-49 -30.5t-69 -15.5zM273 49q45 0 79 26.5t34 87.5v115q0 77 -44.5 116.5t-101.5 39.5q-61 0 -95.5 -47.5t-34.5 -126.5q0 -92 45 -151.5t118 -59.5z" />
    <glyph glyph-name="Dcroat" unicode="&#x110;" horiz-adv-x="641" 
d="M264 621q68 0 125.5 -15.5t106.5 -49t77 -95t28 -145.5q0 -80 -26 -141.5t-71.5 -98.5t-103 -55.5t-124.5 -18.5q-19 0 -70.5 2.5t-72.5 2.5q-44 0 -103 -7v21q33 6 46.5 15.5t13.5 35.5v227h-59v23h59v228q0 25 -13.5 34.5t-46.5 15.5v21h234zM269 28q84 0 139 41
t76.5 103t21.5 144q0 60 -12.5 108.5t-40 87.5t-75.5 60.5t-113 21.5h-22q-32 0 -47 -9t-15 -34v-229h123v-23h-123v-227q0 -44 88 -44z" />
    <glyph glyph-name="dcroat" unicode="&#x111;" horiz-adv-x="554" 
d="M531 509h-65v-442q0 -43 51 -34v-12q-19 -27 -66 -27q-49 0 -63 46q-4 15 -18 15q-10 0 -29 -15t-49 -30.5t-69 -15.5q-82 0 -137.5 64t-55.5 166q0 109 64.5 172.5t155.5 63.5q25 0 50 -5.5t39 -11t26 -8.5t16.5 2.5t4.5 21.5v50h-128v23h128v22q0 35 -12.5 48t-52.5 9
v20l110 24q35 8 35 -28v-95h65v-23zM386 163v115q0 77 -44.5 116.5t-101.5 39.5q-61 0 -95.5 -47.5t-34.5 -126.5q0 -92 45 -151.5t118 -59.5q45 0 79 26.5t34 87.5z" />
    <glyph glyph-name="Emacron" unicode="&#x112;" horiz-adv-x="562" 
d="M149 757q-16 0 -16 14v9q0 14 16 14h291q16 0 16 -14v-9q0 -14 -16 -14h-291zM30 0v21q33 6 46.5 15.5t13.5 35.5v477q0 26 -13.5 35.5t-46.5 15.5v21h454q14 0 15 -12q6 -52 20 -109h-19q-19 47 -49 70t-80 23h-128q-32 0 -47 -10t-15 -37v-171q0 -27 14.5 -36t47.5 -9
h99q43 0 59 16.5t23 55.5h16v-173h-16q-7 38 -23 55.5t-59 17.5h-99q-32 0 -47 -9.5t-15 -35.5v-181q0 -28 19.5 -38t74.5 -9l115 1q50 1 72.5 14.5t37.5 39.5l24 37h20q-22 -40 -30 -107q-2 -14 -16 -14h-468z" />
    <glyph glyph-name="emacron" unicode="&#x113;" horiz-adv-x="478" 
d="M107 587q-16 0 -16 14v9q0 14 16 14h291q16 0 16 -14v-9q0 -14 -16 -14h-291zM260 -6q-97 0 -163.5 64t-66.5 170q0 107 66.5 169.5t165.5 62.5q75 0 119.5 -36.5t44.5 -93.5q0 -49 -42 -70t-149 -26l-89 -4q-31 -1 -25 -42q10 -64 61 -102t120 -38q81 0 125 57l16 -13
q-19 -36 -66 -67t-117 -31zM148 255l73 1q71 2 97 17.5t26 55.5q0 45 -25 74.5t-75 29.5q-56 0 -88.5 -35.5t-39.5 -97.5q-3 -29 4.5 -37.5t27.5 -7.5z" />
    <glyph glyph-name="Edotaccent" unicode="&#x116;" horiz-adv-x="562" 
d="M284 738q-20 0 -35 15.5t-15 35.5t15 35t35 15t35 -15t15 -35t-15 -35.5t-35 -15.5zM30 0v21q33 6 46.5 15.5t13.5 35.5v477q0 26 -13.5 35.5t-46.5 15.5v21h454q14 0 15 -12q6 -52 20 -109h-19q-19 47 -49 70t-80 23h-128q-32 0 -47 -10t-15 -37v-171q0 -27 14.5 -36
t47.5 -9h99q43 0 59 16.5t23 55.5h16v-173h-16q-7 38 -23 55.5t-59 17.5h-99q-32 0 -47 -9.5t-15 -35.5v-181q0 -28 19.5 -38t74.5 -9l115 1q50 1 72.5 14.5t37.5 39.5l24 37h20q-22 -40 -30 -107q-2 -14 -16 -14h-468z" />
    <glyph glyph-name="edotaccent" unicode="&#x117;" horiz-adv-x="478" 
d="M241 568q-20 0 -35 15.5t-15 35.5t15 35t35 15t35 -15t15 -35t-15 -35.5t-35 -15.5zM260 -6q-97 0 -163.5 64t-66.5 170q0 107 66.5 169.5t165.5 62.5q75 0 119.5 -36.5t44.5 -93.5q0 -49 -42 -70t-149 -26l-89 -4q-31 -1 -25 -42q10 -64 61 -102t120 -38q81 0 125 57
l16 -13q-19 -36 -66 -67t-117 -31zM148 255l73 1q71 2 97 17.5t26 55.5q0 45 -25 74.5t-75 29.5q-56 0 -88.5 -35.5t-39.5 -97.5q-3 -29 4.5 -37.5t27.5 -7.5z" />
    <glyph glyph-name="Eogonek" unicode="&#x118;" horiz-adv-x="562" 
d="M524 121h20q-22 -40 -30 -107q-2 -14 -16 -14h-84q-74 -50 -74 -112q0 -24 16.5 -38.5t37.5 -14.5q56 0 80 54h25q-36 -95 -127 -95q-41 0 -73.5 22t-32.5 62q0 42 32.5 73.5t76.5 48.5h-345v21q33 6 46.5 15.5t13.5 35.5v477q0 26 -13.5 35.5t-46.5 15.5v21h454
q14 0 15 -12q6 -52 20 -109h-19q-19 47 -49 70t-80 23h-128q-32 0 -47 -10t-15 -37v-171q0 -27 14.5 -36t47.5 -9h99q43 0 59 16.5t23 55.5h16v-173h-16q-7 38 -23 55.5t-59 17.5h-99q-32 0 -47 -9.5t-15 -35.5v-181q0 -28 19.5 -38t74.5 -9l115 1q50 1 72.5 14.5t37.5 39.5
z" />
    <glyph glyph-name="eogonek" unicode="&#x119;" horiz-adv-x="478" 
d="M334 6q-93 -50 -93 -107q0 -27 14 -40.5t36 -13.5q47 0 71 57h26q-8 -21 -20.5 -40.5t-41.5 -38.5t-66 -19t-65 20t-28 62q0 62 87 108q-95 2 -159.5 66t-64.5 168q0 107 66.5 169.5t165.5 62.5q75 0 119.5 -36.5t44.5 -93.5q0 -49 -42 -70t-149 -26l-89 -4
q-31 -1 -25 -42q10 -64 61 -102t120 -38q81 0 125 57l16 -13q-33 -62 -109 -86zM116 300q-3 -29 4.5 -37.5t27.5 -7.5l73 1q71 2 97 17.5t26 55.5q0 45 -25 74.5t-75 29.5q-56 0 -88.5 -35.5t-39.5 -97.5z" />
    <glyph glyph-name="Ecaron" unicode="&#x11a;" horiz-adv-x="562" 
d="M284 704l-122 138l11 13l111 -78l110 78l11 -13zM30 0v21q33 6 46.5 15.5t13.5 35.5v477q0 26 -13.5 35.5t-46.5 15.5v21h454q14 0 15 -12q6 -52 20 -109h-19q-19 47 -49 70t-80 23h-128q-32 0 -47 -10t-15 -37v-171q0 -27 14.5 -36t47.5 -9h99q43 0 59 16.5t23 55.5h16
v-173h-16q-7 38 -23 55.5t-59 17.5h-99q-32 0 -47 -9.5t-15 -35.5v-181q0 -28 19.5 -38t74.5 -9l115 1q50 1 72.5 14.5t37.5 39.5l24 37h20q-22 -40 -30 -107q-2 -14 -16 -14h-468z" />
    <glyph glyph-name="ecaron" unicode="&#x11b;" horiz-adv-x="478" 
d="M242 534l-122 138l11 13l111 -78l110 78l11 -13zM260 -6q-97 0 -163.5 64t-66.5 170q0 107 66.5 169.5t165.5 62.5q75 0 119.5 -36.5t44.5 -93.5q0 -49 -42 -70t-149 -26l-89 -4q-31 -1 -25 -42q10 -64 61 -102t120 -38q81 0 125 57l16 -13q-19 -36 -66 -67t-117 -31z
M148 255l73 1q71 2 97 17.5t26 55.5q0 45 -25 74.5t-75 29.5q-56 0 -88.5 -35.5t-39.5 -97.5q-3 -29 4.5 -37.5t27.5 -7.5z" />
    <glyph glyph-name="Gbreve" unicode="&#x11e;" horiz-adv-x="671" 
d="M336 731q-61 0 -96 34t-35 85q0 11 8 11h11q8 0 10 -8q5 -26 32.5 -45.5t69.5 -19.5t69.5 19.5t33.5 45.5q2 8 10 8h11q8 0 8 -11q0 -51 -35.5 -85t-96.5 -34zM345 -10q-129 0 -222 87t-93 234q0 149 97 237.5t234 88.5q104 0 169.5 -50t65.5 -107q0 -25 -15.5 -41.5
t-41.5 -16.5q-22 0 -36 14t-16 37q-4 51 -44 91.5t-115 40.5q-93 0 -150 -65.5t-57 -178.5q0 -143 86.5 -238.5t205.5 -95.5q87 0 87 69v70q0 56 -16.5 75t-72.5 23v20l235 1v-21q-40 -5 -51.5 -23.5t-11.5 -74.5v-73q0 -62 5 -93q-23 19 -50 21t-51 -5.5t-64 -16.5t-78 -9z
" />
    <glyph glyph-name="gbreve" unicode="&#x11f;" horiz-adv-x="510" 
d="M252 561q-61 0 -96 34t-35 85q0 11 8 11h11q8 0 10 -8q5 -26 32.5 -45.5t69.5 -19.5t69.5 19.5t33.5 45.5q2 8 10 8h11q8 0 8 -11q0 -51 -35.5 -85t-96.5 -34zM202 -190q-81 0 -134 31t-53 86q0 66 87 98q15 6 16 7q0 2 -8 3q-32 5 -53 25.5t-21 46.5t21.5 44.5
t62.5 24.5q-75 43 -75 129q0 69 49 112t135 43q52 0 95 -18t66 -52q-1 30 13 49.5t45 19.5q22 0 34.5 -10t12.5 -27q0 -20 -15.5 -29t-33.5 -3q-21 7 -33 -3t-5 -32q6 -19 6 -48q0 -69 -48.5 -111t-131.5 -42q-20 0 -48 3t-38 3q-40 0 -40 -29q0 -25 46 -32l160 -28
q77 -13 114 -35.5t37 -67.5q0 -68 -80.5 -113t-182.5 -45zM246 176q43 0 62.5 32t19.5 80q0 65 -31.5 107t-83.5 42q-44 0 -63.5 -31.5t-19.5 -79.5q0 -65 32 -107.5t84 -42.5zM237 -167q63 0 105.5 29t42.5 75q0 28 -19 42t-63 23l-67 11q-72 13 -106.5 -9t-34.5 -66
q0 -49 40 -77t102 -28z" />
    <glyph glyph-name="Gdotaccent" unicode="&#x120;" horiz-adv-x="671" 
d="M337 738q-20 0 -35 15.5t-15 35.5t15 35t35 15t35 -15t15 -35t-15 -35.5t-35 -15.5zM345 -10q-129 0 -222 87t-93 234q0 149 97 237.5t234 88.5q104 0 169.5 -50t65.5 -107q0 -25 -15.5 -41.5t-41.5 -16.5q-22 0 -36 14t-16 37q-4 51 -44 91.5t-115 40.5
q-93 0 -150 -65.5t-57 -178.5q0 -143 86.5 -238.5t205.5 -95.5q87 0 87 69v70q0 56 -16.5 75t-72.5 23v20l235 1v-21q-40 -5 -51.5 -23.5t-11.5 -74.5v-73q0 -62 5 -93q-23 19 -50 21t-51 -5.5t-64 -16.5t-78 -9z" />
    <glyph glyph-name="gdotaccent" unicode="&#x121;" horiz-adv-x="510" 
d="M253 568q-20 0 -35 15.5t-15 35.5t15 35t35 15t35 -15t15 -35t-15 -35.5t-35 -15.5zM202 -190q-81 0 -134 31t-53 86q0 66 87 98q15 6 16 7q0 2 -8 3q-32 5 -53 25.5t-21 46.5t21.5 44.5t62.5 24.5q-75 43 -75 129q0 69 49 112t135 43q52 0 95 -18t66 -52q-1 30 13 49.5
t45 19.5q22 0 34.5 -10t12.5 -27q0 -20 -15.5 -29t-33.5 -3q-21 7 -33 -3t-5 -32q6 -19 6 -48q0 -69 -48.5 -111t-131.5 -42q-20 0 -48 3t-38 3q-40 0 -40 -29q0 -25 46 -32l160 -28q77 -13 114 -35.5t37 -67.5q0 -68 -80.5 -113t-182.5 -45zM246 176q43 0 62.5 32t19.5 80
q0 65 -31.5 107t-83.5 42q-44 0 -63.5 -31.5t-19.5 -79.5q0 -65 32 -107.5t84 -42.5zM237 -167q63 0 105.5 29t42.5 75q0 28 -19 42t-63 23l-67 11q-72 13 -106.5 -9t-34.5 -66q0 -49 40 -77t102 -28z" />
    <glyph glyph-name="uni0122" unicode="&#x122;" horiz-adv-x="671" 
d="M345 -10q-129 0 -222 87t-93 234q0 149 97 237.5t234 88.5q104 0 169.5 -50t65.5 -107q0 -25 -15.5 -41.5t-41.5 -16.5q-22 0 -36 14t-16 37q-4 51 -44 91.5t-115 40.5q-93 0 -150 -65.5t-57 -178.5q0 -143 86.5 -238.5t205.5 -95.5q87 0 87 69v70q0 56 -16.5 75
t-72.5 23v20l235 1v-21q-40 -5 -51.5 -23.5t-11.5 -74.5v-73q0 -62 5 -93q-23 19 -50 21t-51 -5.5t-64 -16.5t-78 -9zM326 -288l-13 14q15 13 25.5 31.5t10.5 30.5q0 17 -16 17q-22 0 -36.5 14.5t-14.5 37.5q0 24 16.5 38.5t39.5 14.5q29 0 44 -21t15 -52q0 -35 -19.5 -69.5
t-51.5 -55.5z" />
    <glyph glyph-name="uni0123" unicode="&#x123;" horiz-adv-x="510" 
d="M270 742l13 -15q-15 -12 -25.5 -30.5t-10.5 -30.5q0 -18 16 -18q22 0 36.5 -14.5t14.5 -37.5q0 -24 -16.5 -38.5t-39.5 -14.5q-29 0 -44.5 21t-15.5 52q0 36 19.5 70t52.5 56zM202 -190q-81 0 -134 31t-53 86q0 66 87 98q15 6 16 7q0 2 -8 3q-32 5 -53 25.5t-21 46.5
t21.5 44.5t62.5 24.5q-75 43 -75 129q0 69 49 112t135 43q52 0 95 -18t66 -52q-1 30 13 49.5t45 19.5q22 0 34.5 -10t12.5 -27q0 -20 -15.5 -29t-33.5 -3q-21 7 -33 -3t-5 -32q6 -19 6 -48q0 -69 -48.5 -111t-131.5 -42q-20 0 -48 3t-38 3q-40 0 -40 -29q0 -25 46 -32
l160 -28q77 -13 114 -35.5t37 -67.5q0 -68 -80.5 -113t-182.5 -45zM246 176q43 0 62.5 32t19.5 80q0 65 -31.5 107t-83.5 42q-44 0 -63.5 -31.5t-19.5 -79.5q0 -65 32 -107.5t84 -42.5zM237 -167q63 0 105.5 29t42.5 75q0 28 -19 42t-63 23l-67 11q-72 13 -106.5 -9
t-34.5 -66q0 -49 40 -77t102 -28z" />
    <glyph glyph-name="Hbar" unicode="&#x126;" horiz-adv-x="686" 
d="M656 600q-33 -6 -46.5 -15.5t-13.5 -35.5v-477q0 -26 13.5 -35.5t46.5 -15.5v-21h-211v21q33 6 46.5 15.5t13.5 35.5v189q0 34 -34 34h-255q-35 0 -35 -34v-189q0 -26 13.5 -35.5t47.5 -15.5v-21h-212v21q33 6 46.5 15.5t13.5 35.5v477q0 26 -13.5 35.5t-46.5 15.5v21
h212v-21q-34 -6 -47.5 -15.5t-13.5 -35.5v-67q0 -35 36 -35h257q22 0 31 13v89q0 26 -13.5 35.5t-46.5 15.5v21h211v-21zM470 322q35 0 35 35v46q-9 13 -30 13h-259q-35 0 -35 -34v-25q0 -35 36 -35h253z" />
    <glyph glyph-name="hbar" unicode="&#x127;" horiz-adv-x="544" 
d="M474 67q0 -43 51 -34v-12q-20 -27 -67 -27q-64 0 -64 71v206q0 63 -29.5 101t-83.5 38t-87.5 -38.5t-33.5 -100.5v-197q0 -27 14 -38t51 -15v-21h-209v21q36 4 50 15t14 38v441h-65v27h65v12q0 35 -12.5 48t-52.5 9v20l110 24q35 8 35 -28v-85h183v-27h-183v-87
q0 -45 15 -42l8 5l9 9q10 10 16 15.5t20 15t27 15t32.5 10t40.5 4.5q62 0 104 -41t42 -125v-227z" />
    <glyph glyph-name="Imacron" unicode="&#x12a;" horiz-adv-x="272" 
d="M0 757q-16 0 -16 14v9q0 14 16 14h291q16 0 16 -14v-9q0 -14 -16 -14h-291zM30 0v21q33 6 46.5 15.5t13.5 35.5v477q0 26 -13.5 35.5t-46.5 15.5v21h212v-21q-34 -6 -47.5 -15.5t-13.5 -35.5v-477q0 -26 13.5 -35.5t47.5 -15.5v-21h-212z" />
    <glyph glyph-name="imacron" unicode="&#x12b;" 
d="M-15 587q-16 0 -16 14v9q0 14 16 14h291q16 0 16 -14v-9q0 -14 -16 -14h-291zM26 0v21q36 4 50 15t14 38v282q0 36 -12.5 49t-52.5 9v19l110 25q35 8 35 -29v-355q0 -27 14 -38t51 -15v-21h-209z" />
    <glyph glyph-name="Iogonek" unicode="&#x12e;" horiz-adv-x="272" 
d="M242 600q-34 -6 -47.5 -15.5t-13.5 -35.5v-477q0 -26 13.5 -35.5t47.5 -15.5v-21h-88q-74 -50 -74 -112q0 -24 16.5 -38.5t37.5 -14.5q56 0 80 54h25q-36 -95 -127 -95q-41 0 -73.5 22t-32.5 62q0 42 32.5 73.5t76.5 48.5h-85v21q33 6 46.5 15.5t13.5 35.5v477
q0 26 -13.5 35.5t-46.5 15.5v21h212v-21z" />
    <glyph glyph-name="iogonek" unicode="&#x12f;" 
d="M119 568q-20 0 -35 15.5t-15 35.5t15 35t35 15t35 -15t15 -35t-15 -35.5t-35 -15.5zM139 0q-74 -50 -74 -112q0 -24 16.5 -38.5t37.5 -14.5q56 0 80 54h25q-36 -95 -127 -95q-41 0 -73.5 22t-32.5 62q0 42 32.5 73.5t76.5 48.5h-74v21q36 4 50 15t14 38v282
q0 36 -12.5 49t-52.5 9v19l110 25q35 8 35 -29v-355q0 -27 14 -38t51 -15v-21h-96z" />
    <glyph glyph-name="Idotaccent" unicode="&#x130;" horiz-adv-x="272" 
d="M135 738q-20 0 -35 15.5t-15 35.5t15 35t35 15t35 -15t15 -35t-15 -35.5t-35 -15.5zM30 0v21q33 6 46.5 15.5t13.5 35.5v477q0 26 -13.5 35.5t-46.5 15.5v21h212v-21q-34 -6 -47.5 -15.5t-13.5 -35.5v-477q0 -26 13.5 -35.5t47.5 -15.5v-21h-212z" />
    <glyph glyph-name="dotlessi" unicode="&#x131;" 
d="M26 0v21q36 4 50 15t14 38v282q0 36 -12.5 49t-52.5 9v19l110 25q35 8 35 -29v-355q0 -27 14 -38t51 -15v-21h-209z" />
    <glyph glyph-name="IJ" unicode="&#x132;" horiz-adv-x="649" 
d="M30 0v21q33 6 46.5 15.5t13.5 35.5v477q0 26 -13.5 35.5t-46.5 15.5v21h212v-21q-34 -6 -47.5 -15.5t-13.5 -35.5v-477q0 -26 13.5 -35.5t47.5 -15.5v-21h-212zM412 -10q-64 0 -99.5 27t-35.5 66q0 23 12.5 37.5t34.5 14.5q43 0 43 -54q0 -25 13.5 -45t39.5 -20
q48 0 48 71v462q0 26 -15 35.5t-55 15.5v21h222v-21q-34 -6 -47.5 -15.5t-13.5 -35.5v-411q0 -148 -147 -148z" />
    <glyph glyph-name="ij" unicode="&#x133;" horiz-adv-x="488" 
d="M121 568q-20 0 -35 15.5t-15 35.5t15 35t35 15t35 -15t15 -35t-15 -35.5t-35 -15.5zM374 568q-20 0 -35 15.5t-15 35.5t15 35t35 15t35 -15t15 -35t-15 -35.5t-35 -15.5zM26 0v21q36 4 50 15t14 38v282q0 36 -12.5 49t-52.5 9v19l110 25q35 8 35 -29v-355q0 -27 14 -38
t51 -15v-21h-209zM296 -200q-38 0 -65.5 16t-27.5 46q0 40 39 40q14 0 25 -11.5t17.5 -26t15.5 -26t20 -11.5q24 0 24 52v477q0 36 -12.5 49t-52.5 9v19l110 25q35 8 35 -29v-491q0 -65 -35 -101.5t-93 -36.5z" />
    <glyph glyph-name="uni0136" unicode="&#x136;" horiz-adv-x="642" 
d="M497 103q26 -33 50.5 -51.5t35 -22t34.5 -8.5v-21h-224v21q27 2 35 13.5t-12 40.5l-153 188q-24 30 -54 1q-27 -25 -28 -60v-132q0 -26 13.5 -35.5t47.5 -15.5v-21h-212v21q33 6 46.5 15.5t13.5 35.5v477q0 26 -13.5 35.5t-46.5 15.5v21h212v-21q-34 -6 -47.5 -15.5
t-13.5 -35.5v-275l258 264q20 20 17 33.5t-15.5 20.5t-29.5 8v21h188v-21q-62 -4 -126 -66l-150 -155q-26 -27 6 -65zM323 -90q29 0 44 -21t15 -52q0 -35 -19.5 -69.5t-51.5 -55.5l-13 14q15 13 25.5 31.5t10.5 30.5q0 17 -16 17q-22 0 -36.5 14.5t-14.5 37.5
q0 24 16.5 38.5t39.5 14.5z" />
    <glyph glyph-name="uni0137" unicode="&#x137;" horiz-adv-x="509" 
d="M16 0v21q36 4 50 15t14 38v480q0 35 -12.5 48t-52.5 9v20l110 24q35 8 35 -28v-364q0 -14 7.5 -18.5t16.5 3.5l157 142q9 9 9 17t-12.5 14.5t-36.5 8.5v21h165v-21q-11 -1 -20.5 -3.5t-15 -4t-13.5 -7t-11 -7.5t-13 -10.5t-13 -11.5l-110 -98l159 -220q15 -20 27.5 -30
t21 -12t31.5 -5v-21h-187v21q28 4 31.5 11.5t-11.5 28.5l-119 166q-9 11 -26 -3q-37 -33 -37 -61v-89q0 -27 14 -38t51 -15v-21h-209zM259 -288l-13 14q15 13 25.5 31.5t10.5 30.5q0 17 -16 17q-22 0 -36.5 14.5t-14.5 37.5q0 24 16.5 38.5t39.5 14.5q29 0 44 -21t15 -52
q0 -35 -19.5 -69.5t-51.5 -55.5z" />
    <glyph glyph-name="Lacute" unicode="&#x139;" horiz-adv-x="551" 
d="M110 702q-6 11 8 25l99 105q35 38 63 8q12 -10 6.5 -29.5t-30.5 -34.5l-117 -71q-23 -12 -29 -3zM30 0v21q33 6 46.5 15.5t13.5 35.5v477q0 26 -13.5 35.5t-46.5 15.5v21h212v-21q-34 -6 -47.5 -15.5t-13.5 -35.5v-477q0 -49 57 -48l144 8q75 4 110 62l17 30h22l-20 -63
q-12 -35 -10 -61h-471z" />
    <glyph glyph-name="lacute" unicode="&#x13a;" horiz-adv-x="230" 
d="M81 702q-6 11 8 25l99 105q35 38 63 8q12 -10 6.5 -29.5t-30.5 -34.5l-117 -71q-23 -12 -29 -3zM139 -6q-64 0 -64 71v489q0 35 -12.5 48t-52.5 9v20l110 24q35 8 35 -28v-560q0 -43 51 -34v-12q-19 -27 -67 -27z" />
    <glyph glyph-name="uni013B" unicode="&#x13b;" horiz-adv-x="551" 
d="M30 0v21q33 6 46.5 15.5t13.5 35.5v477q0 26 -13.5 35.5t-46.5 15.5v21h212v-21q-34 -6 -47.5 -15.5t-13.5 -35.5v-477q0 -49 57 -48l144 8q75 4 110 62l17 30h22l-20 -63q-12 -35 -10 -61h-471zM297 -288l-13 14q15 13 25.5 31.5t10.5 30.5q0 17 -16 17
q-22 0 -36.5 14.5t-14.5 37.5q0 24 16.5 38.5t39.5 14.5q29 0 44 -21t15 -52q0 -35 -19.5 -69.5t-51.5 -55.5z" />
    <glyph glyph-name="uni013C" unicode="&#x13c;" horiz-adv-x="230" 
d="M139 -6q-64 0 -64 71v489q0 35 -12.5 48t-52.5 9v20l110 24q35 8 35 -28v-560q0 -43 51 -34v-12q-19 -27 -67 -27zM141 -288l-13 14q15 13 25.5 31.5t10.5 30.5q0 17 -16 17q-22 0 -36.5 14.5t-14.5 37.5q0 24 16.5 38.5t39.5 14.5q29 0 44 -21t15 -52q0 -35 -19.5 -69.5
t-51.5 -55.5z" />
    <glyph glyph-name="Lcaron" unicode="&#x13d;" horiz-adv-x="551" 
d="M344 432l-13 15q15 12 25.5 30.5t10.5 30.5q0 17 -16 17q-22 0 -36.5 15t-14.5 37q0 25 16.5 39.5t39.5 14.5q29 0 44.5 -21t15.5 -52q0 -36 -20 -70.5t-52 -55.5zM30 0v21q33 6 46.5 15.5t13.5 35.5v477q0 26 -13.5 35.5t-46.5 15.5v21h212v-21q-34 -6 -47.5 -15.5
t-13.5 -35.5v-477q0 -49 57 -48l144 8q75 4 110 62l17 30h22l-20 -63q-12 -35 -10 -61h-471z" />
    <glyph glyph-name="lcaron" unicode="&#x13e;" horiz-adv-x="259" 
d="M212 484q-7 0 -12.5 5.5t-5.5 12.5v119q0 17 10 28t27 11q20 0 30.5 -13t2.5 -38l-33 -107q-5 -18 -19 -18zM139 -6q-64 0 -64 71v489q0 35 -12.5 48t-52.5 9v20l110 24q35 8 35 -28v-560q0 -43 51 -34v-12q-19 -27 -67 -27z" />
    <glyph glyph-name="Ldot" unicode="&#x13f;" horiz-adv-x="551" 
d="M30 0v21q33 6 46.5 15.5t13.5 35.5v477q0 26 -13.5 35.5t-46.5 15.5v21h212v-21q-34 -6 -47.5 -15.5t-13.5 -35.5v-477q0 -49 57 -48l144 8q75 4 110 62l17 30h22l-20 -63q-12 -35 -10 -61h-471zM338 284q-23 0 -39 16t-16 39q0 22 16.5 38t38.5 16t38 -16t16 -38
q0 -23 -16 -39t-38 -16z" />
    <glyph glyph-name="ldot" unicode="&#x140;" horiz-adv-x="291" 
d="M139 -6q-64 0 -64 71v489q0 35 -12.5 48t-52.5 9v20l110 24q35 8 35 -28v-560q0 -43 51 -34v-12q-19 -27 -67 -27zM267 296q-22 0 -38 16t-16 39t16 39t38 16t38 -16.5t16 -38.5t-16 -38.5t-38 -16.5z" />
    <glyph glyph-name="Lslash" unicode="&#x141;" horiz-adv-x="558" 
d="M538 124l-21 -63q-12 -35 -10 -61h-471v21q34 6 47.5 15.5t13.5 35.5v209l-67 -37v26l67 37v242q0 26 -13.5 35.5t-47.5 15.5v21h212v-21q-33 -6 -46.5 -15.5t-13.5 -35.5v-191l91 50v-27l-91 -50v-259q0 -49 56 -48l144 8q75 4 110 62l17 30h23z" />
    <glyph glyph-name="lslash" unicode="&#x142;" horiz-adv-x="243" 
d="M219 371l-64 -39v-265q0 -43 51 -34v-12q-20 -27 -67 -27q-64 0 -64 71v218l-65 -39v26l65 40v244q0 35 -12.5 48t-52.5 9v20l110 24q35 8 35 -28v-268l64 39v-27z" />
    <glyph glyph-name="Nacute" unicode="&#x143;" horiz-adv-x="653" 
d="M297 702q-6 11 8 25l99 105q35 38 63 8q12 -10 6.5 -29.5t-30.5 -34.5l-117 -71q-23 -12 -29 -3zM30 0v21q34 6 48 15.5t14 35.5v477q0 26 -14 35.5t-48 15.5v21h132l365 -476v404q0 26 -13.5 35.5t-46.5 15.5v21h156v-21q-34 -6 -48 -15.5t-14 -35.5v-549h-34l-402 525
v-453q0 -26 13.5 -35.5t46.5 -15.5v-21h-155z" />
    <glyph glyph-name="nacute" unicode="&#x144;" horiz-adv-x="554" 
d="M250 532q-6 11 8 25l99 105q35 38 63 8q12 -10 6.5 -29.5t-30.5 -34.5l-117 -71q-23 -12 -29 -3zM468 -6q-64 0 -64 71v206q0 63 -29.5 101t-83.5 38q-56 0 -88.5 -38.5t-32.5 -100.5v-197q0 -27 14 -38t51 -15v-21h-209v21q36 4 50 15t14 38v282q0 36 -12.5 49t-52.5 9
v19l110 25q35 8 35 -30q0 -45 15 -42l8 5q64 69 142 69q64 0 106.5 -41t42.5 -125v-227q0 -45 51 -34v-12q-20 -27 -67 -27z" />
    <glyph glyph-name="uni0145" unicode="&#x145;" horiz-adv-x="652" 
d="M30 0v21q34 6 48 15.5t14 35.5v477q0 26 -14 35.5t-48 15.5v21h132l365 -476v404q0 26 -13.5 35.5t-46.5 15.5v21h156v-21q-34 -6 -48 -15.5t-14 -35.5v-549h-34l-402 525v-453q0 -26 13.5 -35.5t46.5 -15.5v-21h-155zM308 -288l-12 14q15 13 25.5 31.5t10.5 30.5
q0 17 -16 17q-22 0 -36.5 14.5t-14.5 37.5q0 24 16 38.5t39 14.5q29 0 44.5 -21t15.5 -52q0 -35 -19.5 -69.5t-52.5 -55.5z" />
    <glyph glyph-name="uni0146" unicode="&#x146;" horiz-adv-x="554" 
d="M468 -6q-64 0 -64 71v206q0 63 -29.5 101t-83.5 38q-56 0 -88.5 -38.5t-32.5 -100.5v-197q0 -27 14 -38t51 -15v-21h-209v21q36 4 50 15t14 38v282q0 36 -12.5 49t-52.5 9v19l110 25q35 8 35 -30q0 -45 15 -42l8 5q64 69 142 69q64 0 106.5 -41t42.5 -125v-227
q0 -45 51 -34v-12q-20 -27 -67 -27zM268 -288l-13 14q15 13 25.5 31.5t10.5 30.5q0 17 -16 17q-22 0 -36.5 14.5t-14.5 37.5q0 24 16.5 38.5t39.5 14.5q29 0 44 -21t15 -52q0 -35 -19.5 -69.5t-51.5 -55.5z" />
    <glyph glyph-name="Ncaron" unicode="&#x147;" horiz-adv-x="653" 
d="M326 704l-122 138l11 13l111 -78l110 78l11 -13zM30 0v21q34 6 48 15.5t14 35.5v477q0 26 -14 35.5t-48 15.5v21h132l365 -476v404q0 26 -13.5 35.5t-46.5 15.5v21h156v-21q-34 -6 -48 -15.5t-14 -35.5v-549h-34l-402 525v-453q0 -26 13.5 -35.5t46.5 -15.5v-21h-155z
" />
    <glyph glyph-name="ncaron" unicode="&#x148;" horiz-adv-x="554" 
d="M278 534l-122 138l11 13l111 -78l110 78l11 -13zM468 -6q-64 0 -64 71v206q0 63 -29.5 101t-83.5 38q-56 0 -88.5 -38.5t-32.5 -100.5v-197q0 -27 14 -38t51 -15v-21h-209v21q36 4 50 15t14 38v282q0 36 -12.5 49t-52.5 9v19l110 25q35 8 35 -30q0 -45 15 -42l8 5
q64 69 142 69q64 0 106.5 -41t42.5 -125v-227q0 -45 51 -34v-12q-20 -27 -67 -27z" />
    <glyph glyph-name="Eng" unicode="&#x14a;" horiz-adv-x="653" 
d="M467 621h156v-21q-34 -6 -48 -15.5t-14 -35.5v-611q0 -148 -147 -148q-65 0 -100 27t-35 66q0 23 12 37t35 14q44 0 44 -53q0 -26 13 -46t39 -20q48 0 48 72v187l-345 451v-453q0 -26 13.5 -35.5t46.5 -15.5v-21h-155v21q34 6 48 15.5t14 35.5v477q0 26 -14 35.5
t-48 15.5v21h132l365 -476v404q0 26 -13.5 35.5t-46.5 15.5v21z" />
    <glyph glyph-name="eng" unicode="&#x14b;" horiz-adv-x="549" 
d="M357 -192q-39 0 -66.5 15.5t-27.5 45.5q0 40 39 40q14 0 25 -11.5t17.5 -24.5t15.5 -24.5t20 -11.5q24 0 24 52v387q0 60 -29.5 97t-83.5 37q-53 0 -87 -38.5t-34 -95.5v-202q0 -27 14 -38t51 -16v-20h-209v20q36 5 50 16t14 38v283q0 35 -12.5 48t-52.5 9v19l110 25
q35 8 35 -30q0 -45 15 -42l8 5q64 69 145 69q62 0 104 -40.5t42 -122.5v-352q0 -64 -34.5 -100.5t-92.5 -36.5z" />
    <glyph glyph-name="Omacron" unicode="&#x14c;" horiz-adv-x="701" 
d="M206 757q-16 0 -16 14v9q0 14 16 14h291q16 0 16 -14v-9q0 -14 -16 -14h-291zM344 -10q-135 0 -224.5 90t-89.5 228q0 140 94 234.5t233 94.5q135 0 224.5 -90t89.5 -227q0 -141 -94 -235.5t-233 -94.5zM370 23q82 0 140.5 64t58.5 197q0 140 -69 230t-169 90
q-82 0 -140.5 -63.5t-58.5 -195.5q0 -141 69 -231.5t169 -90.5z" />
    <glyph glyph-name="omacron" unicode="&#x14d;" horiz-adv-x="520" 
d="M126 587q-16 0 -16 14v9q0 14 16 14h291q16 0 16 -14v-9q0 -14 -16 -14h-291zM259 -6q-95 0 -162 63.5t-67 168.5t67.5 169.5t164.5 64.5q95 0 161.5 -63.5t66.5 -167.5q0 -105 -67.5 -170t-163.5 -65zM284 22q54 0 87 43.5t33 126.5q0 99 -47.5 169.5t-120.5 70.5
q-54 0 -86.5 -43t-32.5 -126q0 -100 47 -170.5t120 -70.5z" />
    <glyph glyph-name="Ohungarumlaut" unicode="&#x150;" horiz-adv-x="701" 
d="M242 702q-6 11 9 25l99 105q35 38 63 8q12 -10 6.5 -29.5t-31.5 -34.5l-117 -71q-22 -13 -29 -3zM414 702q-6 11 9 25l99 105q35 38 63 8q12 -10 6.5 -29.5t-31.5 -34.5l-117 -71q-22 -13 -29 -3zM344 -10q-135 0 -224.5 90t-89.5 228q0 140 94 234.5t233 94.5
q135 0 224.5 -90t89.5 -227q0 -141 -94 -235.5t-233 -94.5zM370 23q82 0 140.5 64t58.5 197q0 140 -69 230t-169 90q-82 0 -140.5 -63.5t-58.5 -195.5q0 -141 69 -231.5t169 -90.5z" />
    <glyph glyph-name="ohungarumlaut" unicode="&#x151;" horiz-adv-x="520" 
d="M153 532q-5 11 9 25l99 105q35 38 63 8q12 -10 6.5 -29.5t-30.5 -34.5l-118 -71q-22 -13 -29 -3zM325 532q-5 11 9 25l99 105q35 38 63 8q12 -10 6.5 -29.5t-30.5 -34.5l-118 -71q-22 -13 -29 -3zM259 -6q-95 0 -162 63.5t-67 168.5t67.5 169.5t164.5 64.5
q95 0 161.5 -63.5t66.5 -167.5q0 -105 -67.5 -170t-163.5 -65zM284 22q54 0 87 43.5t33 126.5q0 99 -47.5 169.5t-120.5 70.5q-54 0 -86.5 -43t-32.5 -126q0 -100 47 -170.5t120 -70.5z" />
    <glyph glyph-name="OE" unicode="&#x152;" horiz-adv-x="961" 
d="M923 121h20q-22 -40 -30 -107q-2 -14 -16 -14h-468q-45 -10 -84 -10q-135 0 -225 90.5t-90 227.5q0 140 94 234.5t232 94.5q57 0 105 -16h422q14 0 15 -12q6 -52 20 -109h-19q-19 47 -49 70t-80 23h-128q-32 0 -47 -10t-15 -37v-171q0 -27 14.5 -36t47.5 -9h99
q43 0 59 16.5t23 55.5h16v-173h-16q-7 38 -23 55.5t-59 17.5h-99q-32 0 -47 -9.5t-15 -35.5v-181q0 -28 19.5 -38t74.5 -9l115 1q50 1 72.5 14.5t37.5 39.5zM130 345q0 -142 69.5 -232.5t168.5 -90.5q67 0 120 36q1 4 1 14v467q-68 66 -156 66q-84 0 -143.5 -64t-59.5 -196z
" />
    <glyph glyph-name="oe" unicode="&#x153;" horiz-adv-x="862" 
d="M810 106l17 -13q-19 -36 -66.5 -67t-117.5 -31q-60 0 -110 26t-81 73q-31 -47 -82.5 -73.5t-110.5 -26.5q-95 0 -162 63.5t-67 168.5t67.5 169.5t164.5 64.5q58 0 108 -25.5t81 -71.5q31 47 82 72.5t113 25.5q75 0 119 -36.5t44 -93.5q0 -49 -41.5 -70t-148.5 -26l-90 -4
q-31 -1 -25 -42q10 -64 61.5 -102t119.5 -38q81 0 125 57zM500 301q-4 -29 3.5 -37.5t28.5 -7.5l73 1q71 2 96.5 17.5t25.5 55.5q0 45 -25 74.5t-75 29.5q-55 0 -87.5 -35.5t-39.5 -97.5zM284 22q54 0 87 43.5t33 126.5q0 99 -47.5 169.5t-120.5 70.5q-54 0 -86.5 -43
t-32.5 -126q0 -100 47 -170.5t120 -70.5z" />
    <glyph glyph-name="Racute" unicode="&#x154;" horiz-adv-x="615" 
d="M273 702q-6 11 8 25l99 105q35 38 63 8q12 -10 6.5 -29.5t-30.5 -34.5l-117 -71q-23 -12 -29 -3zM30 0v21q33 6 46.5 15.5t13.5 35.5v477q0 26 -13.5 35.5t-46.5 15.5v21h272q116 0 176 -44t60 -124q0 -117 -142 -154q-3 -1 -4.5 -3t0 -3.5t4.5 -2.5q77 -23 107 -120
q27 -86 45 -117.5t47 -31.5v-21h-27q-70 0 -98 31t-60 128q-23 69 -58 96t-98 27q-43 0 -58 -12t-15 -42v-156q0 -26 15 -35.5t56 -15.5v-21h-222zM236 312h72q137 0 137 139q0 142 -140 142h-58q-36 0 -51 -9.5t-15 -35.5v-182q0 -29 12.5 -41.5t42.5 -12.5z" />
    <glyph glyph-name="racute" unicode="&#x155;" horiz-adv-x="430" 
d="M165 532q-6 11 8 25l99 105q35 38 63 8q12 -10 6.5 -29.5t-30.5 -34.5l-117 -71q-23 -12 -29 -3zM26 0v21q36 4 50 15t14 38v282q0 36 -12.5 49t-52.5 9v19l110 25q35 8 35 -30v-28q0 -9 6 -11t15 6q60 65 132 65q51 0 71.5 -25.5t20.5 -54.5q0 -22 -13 -35.5t-33 -13.5
q-19 0 -30.5 10.5t-11.5 24.5q0 20 -13.5 34t-37.5 14q-44 0 -75 -42.5t-31 -110.5v-187q0 -27 14.5 -38t52.5 -15v-21h-211z" />
    <glyph glyph-name="uni0156" unicode="&#x156;" horiz-adv-x="615" 
d="M30 0v21q33 6 46.5 15.5t13.5 35.5v477q0 26 -13.5 35.5t-46.5 15.5v21h272q116 0 176 -44t60 -124q0 -117 -142 -154q-3 -1 -4.5 -3t0 -3.5t4.5 -2.5q77 -23 107 -120q27 -86 45 -117.5t47 -31.5v-21h-27q-70 0 -98 31t-60 128q-23 69 -58 96t-98 27q-43 0 -58 -12
t-15 -42v-156q0 -26 15 -35.5t56 -15.5v-21h-222zM236 312h72q137 0 137 139q0 142 -140 142h-58q-36 0 -51 -9.5t-15 -35.5v-182q0 -29 12.5 -41.5t42.5 -12.5zM309 -288l-12 14q15 12 25 31t10 31q0 17 -15 17q-22 0 -36.5 14.5t-14.5 37.5q0 24 16 38.5t39 14.5
q29 0 44.5 -21t15.5 -52q0 -35 -20 -69.5t-52 -55.5z" />
    <glyph glyph-name="uni0157" unicode="&#x157;" horiz-adv-x="430" 
d="M26 0v21q36 4 50 15t14 38v282q0 36 -12.5 49t-52.5 9v19l110 25q35 8 35 -30v-28q0 -9 6 -11t15 6q60 65 132 65q51 0 71.5 -25.5t20.5 -54.5q0 -22 -13 -35.5t-33 -13.5q-19 0 -30.5 10.5t-11.5 24.5q0 20 -13.5 34t-37.5 14q-44 0 -75 -42.5t-31 -110.5v-187
q0 -27 14.5 -38t52.5 -15v-21h-211zM127 -288l-13 14q15 13 25.5 31.5t10.5 30.5q0 17 -16 17q-22 0 -36.5 14.5t-14.5 37.5q0 24 16.5 38.5t39.5 14.5q29 0 44 -21t15 -52q0 -35 -19.5 -69.5t-51.5 -55.5z" />
    <glyph glyph-name="Rcaron" unicode="&#x158;" horiz-adv-x="615" 
d="M302 704l-122 138l11 13l111 -78l110 78l11 -13zM30 0v21q33 6 46.5 15.5t13.5 35.5v477q0 26 -13.5 35.5t-46.5 15.5v21h272q116 0 176 -44t60 -124q0 -117 -142 -154q-3 -1 -4.5 -3t0 -3.5t4.5 -2.5q77 -23 107 -120q27 -86 45 -117.5t47 -31.5v-21h-27q-70 0 -98 31
t-60 128q-23 69 -58 96t-98 27q-43 0 -58 -12t-15 -42v-156q0 -26 15 -35.5t56 -15.5v-21h-222zM236 312h72q137 0 137 139q0 142 -140 142h-58q-36 0 -51 -9.5t-15 -35.5v-182q0 -29 12.5 -41.5t42.5 -12.5z" />
    <glyph glyph-name="rcaron" unicode="&#x159;" horiz-adv-x="430" 
d="M191 534l-122 138l11 13l111 -78l110 78l11 -13zM26 0v21q36 4 50 15t14 38v282q0 36 -12.5 49t-52.5 9v19l110 25q35 8 35 -30v-28q0 -9 6 -11t15 6q60 65 132 65q51 0 71.5 -25.5t20.5 -54.5q0 -22 -13 -35.5t-33 -13.5q-19 0 -30.5 10.5t-11.5 24.5q0 20 -13.5 34
t-37.5 14q-44 0 -75 -42.5t-31 -110.5v-187q0 -27 14.5 -38t52.5 -15v-21h-211z" />
    <glyph glyph-name="Sacute" unicode="&#x15a;" horiz-adv-x="534" 
d="M228 702q-6 11 8 25l99 105q35 38 63 8q12 -10 6.5 -29.5t-30.5 -34.5l-117 -71q-23 -12 -29 -3zM250 -10q-99 0 -190 54q-21 52 -19.5 100t23.5 48q12 0 16 -12q24 -75 79 -118t127 -42q58 2 91.5 29.5t33.5 82.5q0 15 -2.5 27.5t-9.5 23.5t-12 19t-18 16t-19.5 12.5
t-25 11.5t-25 9.5t-29 10l-28.5 9.5q-93 32 -144 77.5t-51 117.5q0 76 60 123.5t164 47.5q101 0 179 -46q21 -53 19.5 -100.5t-23.5 -47.5q-11 0 -16 12q-24 74 -74.5 113.5t-112.5 39.5q-58 0 -86 -32.5t-28 -78.5q0 -53 36.5 -81.5t109.5 -52.5q36 -12 50.5 -17.5t48 -20
t50 -27.5t37 -33t29.5 -45.5t9 -56.5q0 -87 -73 -130t-176 -43z" />
    <glyph glyph-name="sacute" unicode="&#x15b;" horiz-adv-x="427" 
d="M182 532q-6 11 8 25l99 105q35 38 63 8q12 -10 6.5 -29.5t-30.5 -34.5l-117 -71q-23 -12 -29 -3zM205 -6q-72 0 -123.5 29.5t-51.5 83.5q0 23 11 35.5t29 12.5q17 0 27 -10.5t10 -23.5q0 -51 35 -77t83 -26q43 0 66.5 20t23.5 55q0 18 -8 33.5t-17 24t-30 18t-32 13.5
t-37 12q-30 9 -52.5 19.5t-46 26.5t-36.5 39.5t-13 53.5q0 57 48 92t126 35q69 0 117.5 -27.5t48.5 -73.5t-42 -46q-34 0 -34 35q0 39 -30 64t-75 25q-81 0 -81 -72q0 -41 25.5 -60.5t80.5 -37.5q34 -11 47 -15.5t42.5 -18t43 -26t25.5 -33.5t12 -47q0 -60 -54.5 -96.5
t-137.5 -36.5z" />
    <glyph glyph-name="Scedilla" unicode="&#x15e;" horiz-adv-x="534" 
d="M499 163q0 -77 -57.5 -119.5t-145.5 -51.5l-19 -40q39 10 73 -11.5t34 -60.5q0 -40 -33.5 -64t-79.5 -24q-49 0 -77 18.5t-28 44.5q0 24 19 32t39 -9q0 -66 44 -66q27 0 43.5 21t16.5 49q0 23 -13 38t-35 15q-12 0 -26.5 -5t-19.5 -5q-11 0 -14 7.5t3 18.5l19 39
q-95 2 -182 54q-21 52 -19.5 100t23.5 48q12 0 16 -12q24 -75 79 -118t127 -42q58 2 91.5 29.5t33.5 82.5q0 15 -2.5 27.5t-9.5 23.5t-12 19t-18 16t-19.5 12.5t-25 11.5t-25 9.5t-29 10l-28.5 9.5q-93 32 -144 77.5t-51 117.5q0 76 60 123.5t164 47.5q101 0 179 -46
q21 -53 19.5 -100.5t-23.5 -47.5q-11 0 -16 12q-24 74 -74.5 113.5t-112.5 39.5q-58 0 -86 -32.5t-28 -78.5q0 -53 36.5 -81.5t109.5 -52.5q36 -12 50.5 -17.5t48 -20t50 -27.5t37 -33t29.5 -45.5t9 -56.5z" />
    <glyph glyph-name="scedilla" unicode="&#x15f;" horiz-adv-x="427" 
d="M397 127q0 -54 -44.5 -89t-115.5 -42l-21 -44q39 10 73 -11.5t34 -60.5q0 -40 -33.5 -64t-79.5 -24q-49 0 -77 18.5t-28 44.5q0 24 19.5 32t38.5 -9q0 -66 44 -66q27 0 43.5 21t16.5 49q0 23 -13 38t-35 15q-12 0 -26.5 -5t-19.5 -5q-11 0 -14 7.5t3 18.5l21 44
q-65 4 -109 33t-44 79q0 23 11 35.5t29 12.5q17 0 27 -10.5t10 -23.5q0 -51 35 -77t83 -26q43 0 66.5 20t23.5 55q0 18 -8 33.5t-17 24t-30 18t-32 13.5t-37 12q-30 9 -52.5 19.5t-46 26.5t-36.5 39.5t-13 53.5q0 57 48 92t126 35q69 0 117.5 -27.5t48.5 -73.5t-42 -46
q-34 0 -34 35q0 39 -30 64t-75 25q-81 0 -81 -72q0 -41 25.5 -60.5t80.5 -37.5q34 -11 47 -15.5t42.5 -18t43 -26t25.5 -33.5t12 -47z" />
    <glyph glyph-name="Scaron" unicode="&#x160;" horiz-adv-x="534" 
d="M257 704l-122 138l11 13l111 -78l110 78l11 -13zM250 -10q-99 0 -190 54q-21 52 -19.5 100t23.5 48q12 0 16 -12q24 -75 79 -118t127 -42q58 2 91.5 29.5t33.5 82.5q0 15 -2.5 27.5t-9.5 23.5t-12 19t-18 16t-19.5 12.5t-25 11.5t-25 9.5t-29 10l-28.5 9.5
q-93 32 -144 77.5t-51 117.5q0 76 60 123.5t164 47.5q101 0 179 -46q21 -53 19.5 -100.5t-23.5 -47.5q-11 0 -16 12q-24 74 -74.5 113.5t-112.5 39.5q-58 0 -86 -32.5t-28 -78.5q0 -53 36.5 -81.5t109.5 -52.5q36 -12 50.5 -17.5t48 -20t50 -27.5t37 -33t29.5 -45.5t9 -56.5
q0 -87 -73 -130t-176 -43z" />
    <glyph glyph-name="scaron" unicode="&#x161;" horiz-adv-x="427" 
d="M211 534l-122 138l11 13l111 -78l110 78l11 -13zM205 -6q-72 0 -123.5 29.5t-51.5 83.5q0 23 11 35.5t29 12.5q17 0 27 -10.5t10 -23.5q0 -51 35 -77t83 -26q43 0 66.5 20t23.5 55q0 18 -8 33.5t-17 24t-30 18t-32 13.5t-37 12q-30 9 -52.5 19.5t-46 26.5t-36.5 39.5
t-13 53.5q0 57 48 92t126 35q69 0 117.5 -27.5t48.5 -73.5t-42 -46q-34 0 -34 35q0 39 -30 64t-75 25q-81 0 -81 -72q0 -41 25.5 -60.5t80.5 -37.5q34 -11 47 -15.5t42.5 -18t43 -26t25.5 -33.5t12 -47q0 -60 -54.5 -96.5t-137.5 -36.5z" />
    <glyph glyph-name="uni0162" unicode="&#x162;" horiz-adv-x="592" 
d="M552 615l15 -124h-23q-21 59 -45 78.5t-76 19.5q-54 0 -67.5 -11.5t-13.5 -48.5v-457q0 -27 19.5 -36.5t81.5 -14.5v-21h-118l-23 -48q39 10 73 -11.5t34 -60.5q0 -40 -33.5 -64t-79.5 -24q-49 0 -77 18.5t-28 44.5q0 24 19.5 32t38.5 -9q0 -66 44 -66q27 0 43.5 21
t16.5 49q0 23 -13 38t-35 15q-12 0 -26.5 -5t-19.5 -5q-11 0 -14 7.5t3 18.5l24 49h-123v21q63 5 82.5 14.5t19.5 36.5v457q0 37 -14 48.5t-68 11.5q-52 0 -76 -19.5t-45 -78.5h-23l16 124q1 8 11 8q32 -2 66 -2h356q36 0 66 2q11 0 12 -8z" />
    <glyph glyph-name="uni0163" unicode="&#x163;" horiz-adv-x="321" 
d="M214 419q-31 1 -40.5 -5t-9.5 -26v-264q0 -48 13.5 -72t48.5 -24q28 0 56 18l9 -14q-34 -36 -86 -37l-21 -43q39 10 73 -11.5t34 -60.5q0 -40 -33.5 -64t-79.5 -24q-49 0 -77 18.5t-28 44.5q0 24 19.5 32t38.5 -9q0 -66 44 -66q27 0 43.5 21t16.5 49q0 23 -13 38t-35 15
q-12 0 -26.5 -5t-19.5 -5q-11 0 -14 7.5t3 18.5l24 49h6q-76 20 -76 113v277q0 18 -5.5 24.5t-16.5 6.5h-47v22q75 29 118 105q4 8 13 8h9q10 0 10 -10l-1 -69q0 -16 9.5 -21t40.5 -5h77v-36z" />
    <glyph glyph-name="Tcaron" unicode="&#x164;" horiz-adv-x="592" 
d="M297 704l-122 138l11 13l111 -78l110 78l11 -13zM149 0v21q63 5 82.5 14.5t19.5 36.5v457q0 37 -14 48.5t-68 11.5q-52 0 -76 -19.5t-45 -78.5h-23l16 124q1 8 11 8q32 -2 66 -2h356q36 0 66 2q11 0 12 -8l15 -124h-23q-21 59 -45 78.5t-76 19.5q-54 0 -67.5 -11.5
t-13.5 -48.5v-457q0 -27 19.5 -36.5t81.5 -14.5v-21h-294z" />
    <glyph glyph-name="tcaron" unicode="&#x165;" horiz-adv-x="316" 
d="M226 494q-16 0 -18 18l3 119q2 39 33 39q20 0 29.5 -13t2.5 -38l-31 -107q-5 -18 -19 -18zM200 -5q-53 0 -84.5 29t-31.5 89v277q0 18 -5.5 24.5t-16.5 6.5h-47v22q75 29 118 105q4 8 13 8h9q10 0 10 -10l-1 -69q0 -16 9.5 -21t40.5 -5h77v-36l-77 4q-31 1 -40.5 -5
t-9.5 -26v-264q0 -48 13.5 -72t48.5 -24q28 0 56 18l9 -14q-35 -37 -91 -37z" />
    <glyph glyph-name="Tbar" unicode="&#x166;" horiz-adv-x="592" 
d="M552 615l15 -124h-23q-21 59 -45 78.5t-76 19.5q-54 0 -67.5 -11.5t-13.5 -48.5v-118h122v-23h-122v-316q0 -27 19.5 -36.5t81.5 -14.5v-21h-294v21q63 5 82.5 14.5t19.5 36.5v316h-122v23h122v118q0 37 -14 48.5t-68 11.5q-52 0 -76 -19.5t-45 -78.5h-23l16 124
q1 8 11 8q32 -2 66 -2h356q36 0 66 2q11 0 12 -8z" />
    <glyph glyph-name="tbar" unicode="&#x167;" horiz-adv-x="321" 
d="M214 419q-31 1 -40.5 -5t-9.5 -26v-35h105v-28h-105v-201q0 -48 13.5 -72t48.5 -24q28 0 56 18l9 -14q-35 -37 -91 -37q-53 0 -84.5 29t-31.5 89v212h-69v28h69v37q0 18 -5.5 24.5t-16.5 6.5h-47v22q75 29 118 105q4 8 13 8h9q10 0 10 -10l-1 -69q0 -16 9.5 -21t40.5 -5
h77v-36z" />
    <glyph glyph-name="Umacron" unicode="&#x16a;" horiz-adv-x="654" 
d="M208 757q-16 0 -16 14v9q0 14 16 14h291q16 0 16 -14v-9q0 -14 -16 -14h-291zM329 -10q-110 0 -177 66t-67 196v297q0 26 -13.5 35.5t-46.5 15.5v21h212v-21q-34 -6 -47.5 -15.5t-13.5 -35.5v-278q0 -119 45.5 -178.5t127.5 -59.5q79 0 130.5 54.5t51.5 177.5v284
q0 26 -14.5 35.5t-49.5 15.5v21h162v-21q-34 -6 -48 -15.5t-14 -35.5v-291q0 -129 -62 -198.5t-176 -69.5z" />
    <glyph glyph-name="umacron" unicode="&#x16b;" horiz-adv-x="559" 
d="M130 587q-16 0 -16 14v9q0 14 16 14h291q16 0 16 -14v-9q0 -14 -16 -14h-291zM236 -6q-62 0 -104 40.5t-42 121.5v200q0 36 -12.5 48t-52.5 10v19l110 25q35 8 35 -29v-251q0 -61 30 -98.5t84 -37.5t87 38t33 98v178q0 36 -12.5 48t-52.5 10v19l110 25q35 8 35 -29v-362
q0 -43 51 -34v-12q-20 -27 -67 -27q-58 0 -66 60q-2 12 -9 12t-13 -6l-8 -8q-7 -7 -12 -11l-15 -12t-20.5 -13t-24.5 -10.5t-30 -8.5t-34 -3z" />
    <glyph glyph-name="ubreve" unicode="&#x16d;" horiz-adv-x="559" 
d="M260 561q-61 0 -96 34t-35 85q0 11 8 11h11q8 0 10 -8q5 -26 32.5 -45.5t69.5 -19.5t69.5 19.5t33.5 45.5q2 8 10 8h11q8 0 8 -11q0 -51 -35.5 -85t-96.5 -34zM236 -6q-62 0 -104 40.5t-42 121.5v200q0 36 -12.5 48t-52.5 10v19l110 25q35 8 35 -29v-251q0 -61 30 -98.5
t84 -37.5t87 38t33 98v178q0 36 -12.5 48t-52.5 10v19l110 25q35 8 35 -29v-362q0 -43 51 -34v-12q-20 -27 -67 -27q-58 0 -66 60q-2 12 -9 12t-13 -6l-8 -8q-7 -7 -12 -11l-15 -12t-20.5 -13t-24.5 -10.5t-30 -8.5t-34 -3z" />
    <glyph glyph-name="Uring" unicode="&#x16e;" horiz-adv-x="654" 
d="M351 721q-38 0 -63.5 26t-25.5 61q0 36 25 61.5t64 25.5q38 0 63 -25t25 -62q0 -35 -25 -61t-63 -26zM351 757q21 0 35 14t14 37q0 22 -14 36.5t-35 14.5t-35 -14.5t-14 -36.5q0 -23 14 -37t35 -14zM329 -10q-110 0 -177 66t-67 196v297q0 26 -13.5 35.5t-46.5 15.5v21
h212v-21q-34 -6 -47.5 -15.5t-13.5 -35.5v-278q0 -119 45.5 -178.5t127.5 -59.5q79 0 130.5 54.5t51.5 177.5v284q0 26 -14.5 35.5t-49.5 15.5v21h162v-21q-34 -6 -48 -15.5t-14 -35.5v-291q0 -129 -62 -198.5t-176 -69.5z" />
    <glyph glyph-name="uring" unicode="&#x16f;" horiz-adv-x="559" 
d="M217 551q-38 0 -63 26t-25 61q0 37 25 62t63 25q39 0 64 -25.5t25 -61.5q0 -35 -25.5 -61t-63.5 -26zM217 587q21 0 35 14t14 37q0 22 -14 36.5t-35 14.5t-35 -14.5t-14 -36.5q0 -23 14 -37t35 -14zM236 -6q-62 0 -104 40.5t-42 121.5v200q0 36 -12.5 48t-52.5 10v19
l110 25q35 8 35 -29v-251q0 -61 30 -98.5t84 -37.5t87 38t33 98v178q0 36 -12.5 48t-52.5 10v19l110 25q35 8 35 -29v-362q0 -43 51 -34v-12q-20 -27 -67 -27q-58 0 -66 60q-2 12 -9 12t-13 -6l-8 -8q-7 -7 -12 -11l-15 -12t-20.5 -13t-24.5 -10.5t-30 -8.5t-34 -3z" />
    <glyph glyph-name="Uhungarumlaut" unicode="&#x170;" horiz-adv-x="654" 
d="M244 702q-6 11 9 25l99 105q35 38 63 8q12 -10 6.5 -29.5t-31.5 -34.5l-117 -71q-22 -13 -29 -3zM416 702q-6 11 9 25l99 105q35 38 63 8q12 -10 6.5 -29.5t-31.5 -34.5l-117 -71q-22 -13 -29 -3zM329 -10q-110 0 -177 66t-67 196v297q0 26 -13.5 35.5t-46.5 15.5v21h212
v-21q-34 -6 -47.5 -15.5t-13.5 -35.5v-278q0 -119 45.5 -178.5t127.5 -59.5q79 0 130.5 54.5t51.5 177.5v284q0 26 -14.5 35.5t-49.5 15.5v21h162v-21q-34 -6 -48 -15.5t-14 -35.5v-291q0 -129 -62 -198.5t-176 -69.5z" />
    <glyph glyph-name="uhungarumlaut" unicode="&#x171;" horiz-adv-x="559" 
d="M106 532q-6 11 9 25l99 105q35 37 62 8q12 -10 6.5 -29.5t-30.5 -34.5l-117 -71q-22 -13 -29 -3zM278 532q-6 11 9 25l99 105q35 37 62 8q12 -10 6.5 -29.5t-30.5 -34.5l-117 -71q-22 -13 -29 -3zM236 -6q-62 0 -104 40.5t-42 121.5v200q0 36 -12.5 48t-52.5 10v19
l110 25q35 8 35 -29v-251q0 -61 30 -98.5t84 -37.5t87 38t33 98v178q0 36 -12.5 48t-52.5 10v19l110 25q35 8 35 -29v-362q0 -43 51 -34v-12q-20 -27 -67 -27q-58 0 -66 60q-2 12 -9 12t-13 -6l-8 -8q-7 -7 -12 -11l-15 -12t-20.5 -13t-24.5 -10.5t-30 -8.5t-34 -3z" />
    <glyph glyph-name="Uogonek" unicode="&#x172;" horiz-adv-x="654" 
d="M467 621h162v-21q-34 -6 -48 -15.5t-14 -35.5v-291q0 -210 -156 -257h1q-76 -49 -76 -113q0 -24 16.5 -38.5t37.5 -14.5q56 0 80 54h25q-36 -95 -127 -95q-41 0 -73.5 22t-32.5 62q0 68 88 113q-7 -1 -21 -1q-110 0 -177 66t-67 196v297q0 26 -13.5 35.5t-46.5 15.5v21
h212v-21q-34 -6 -47.5 -15.5t-13.5 -35.5v-278q0 -119 45.5 -178.5t127.5 -59.5q79 0 130.5 54.5t51.5 177.5v284q0 26 -14.5 35.5t-49.5 15.5v21z" />
    <glyph glyph-name="uogonek" unicode="&#x173;" horiz-adv-x="559" 
d="M484 67q0 -43 51 -34v-12q-11 -15 -41 -24q-131 -35 -131 -97q0 -27 14 -41t37 -14q44 0 70 57h26q-13 -34 -45 -66t-80 -32q-40 0 -68 20t-28 63q0 42 39 72.5t102 44.5q-24 16 -28 50q-2 12 -9 12t-13 -6l-8 -8q-7 -7 -12 -11l-15 -12t-20.5 -13t-24.5 -10.5t-30 -8.5
t-34 -3q-62 0 -104 40.5t-42 121.5v200q0 36 -12.5 48t-52.5 10v19l110 25q35 8 35 -29v-251q0 -61 30 -98.5t84 -37.5t87 38t33 98v178q0 36 -12.5 48t-52.5 10v19l110 25q35 8 35 -29v-362z" />
    <glyph glyph-name="Wcircumflex" unicode="&#x174;" horiz-adv-x="1015" 
d="M506 858l121 -138l-11 -14l-110 78l-111 -78l-11 14zM310 0l-196 502q-21 55 -39 74t-55 24v21h220v-21q-44 -7 -51.5 -22t6.5 -45l155 -402q10 -24 20 0l98 254q19 51 -6 117q-22 56 -39.5 74.5t-54.5 23.5v21h219v-21q-44 -7 -51.5 -22t7.5 -45l154 -402q10 -24 20 0
l152 397q22 62 -63 72v21h189v-21q-36 -7 -55.5 -22t-33.5 -50l-174 -451q-19 -52 -19 -77h-56l-151 390l-121 -313q-20 -54 -20 -77h-55z" />
    <glyph glyph-name="wcircumflex" unicode="&#x175;" horiz-adv-x="754" 
d="M334 688l121 -138l-11 -14l-110 78l-111 -78l-11 14zM223 0l-133 338q-18 47 -32.5 63.5t-47.5 28.5v21h197v-21q-41 -12 -46.5 -27.5t14.5 -64.5l83 -213q7 -17 12.5 -22.5t11 0t11.5 22.5l31 87q30 82 5 145q-12 30 -27.5 45.5t-46.5 27.5v21h196v-21
q-40 -12 -45.5 -27.5t13.5 -64.5l84 -213q7 -17 12.5 -22.5t11 0t11.5 22.5l38 109q24 66 33.5 101t6 55.5t-13.5 26.5t-36 13v21h178v-21q-44 -12 -61.5 -28.5t-36.5 -63.5l-133 -338h-46l-100 254l-99 -254h-45z" />
    <glyph glyph-name="Ycircumflex" unicode="&#x176;" horiz-adv-x="636" 
d="M314 858l121 -138l-11 -14l-110 78l-111 -78l-11 14zM193 0v21q47 6 63.5 15t16.5 36v170q0 23 -21 57l-131 207q-30 47 -52.5 66t-53.5 28v21h222v-21q-39 -8 -44.5 -24t15.5 -47l130 -206q7 -9 14 0l123 202q19 27 14.5 43t-17 22.5t-35.5 9.5v21h184v-21
q-36 -4 -58.5 -21t-51.5 -63l-133 -213q-14 -23 -14 -61v-170q0 -27 16.5 -36t63.5 -15v-21h-251z" />
    <glyph glyph-name="ycircumflex" unicode="&#x177;" horiz-adv-x="523" 
d="M264 688l121 -138l-11 -14l-110 78l-111 -78l-11 14zM119 -198q-37 0 -58.5 17t-21.5 44q0 22 14.5 35.5t36.5 13.5q19 0 28 -11.5t10 -25.5t6.5 -25.5t19.5 -11.5q31 0 60 74q23 59 -4 131l-120 295q-19 48 -33.5 64t-46.5 28v21h199v-21q-41 -12 -46.5 -27.5
t14.5 -64.5l89 -219q7 -15 12 -19.5t10.5 0.5t12.5 20l44 114q25 63 36 99.5t6.5 56t-15 26.5t-36.5 14v21h177v-21q-43 -12 -61.5 -28.5t-36.5 -63.5l-168 -415q-26 -63 -51.5 -92t-76.5 -29z" />
    <glyph glyph-name="Ydieresis" unicode="&#x178;" horiz-adv-x="636" 
d="M222 738q-20 0 -35 15.5t-15 35.5t15 35t35 15t35 -15t15 -35t-15 -35.5t-35 -15.5zM406 738q-20 0 -35 15.5t-15 35.5t15 35t35 15t35 -15t15 -35t-15 -35.5t-35 -15.5zM193 0v21q47 6 63.5 15t16.5 36v170q0 23 -21 57l-131 207q-30 47 -52.5 66t-53.5 28v21h222v-21
q-39 -8 -44.5 -24t15.5 -47l130 -206q7 -9 14 0l123 202q19 27 14.5 43t-17 22.5t-35.5 9.5v21h184v-21q-36 -4 -58.5 -21t-51.5 -63l-133 -213q-14 -23 -14 -61v-170q0 -27 16.5 -36t63.5 -15v-21h-251z" />
    <glyph glyph-name="Zacute" unicode="&#x179;" horiz-adv-x="568" 
d="M260 702q-6 11 8 25l99 105q35 38 63 8q12 -10 6.5 -29.5t-30.5 -34.5l-117 -71q-23 -12 -29 -3zM15 0l394 579q9 17 -9 17l-181 -1q-71 0 -101.5 -24t-49.5 -75h-24l20 125h479l-395 -579q-5 -6 -2 -11.5t11 -5.5l212 3q63 1 94 22.5t56 70.5h24l-26 -121h-502z" />
    <glyph glyph-name="zacute" unicode="&#x17a;" horiz-adv-x="441" 
d="M193 532q-6 11 8 25l99 105q35 38 63 8q12 -10 6.5 -29.5t-30.5 -34.5l-117 -71q-23 -12 -29 -3zM15 0l282 403q11 18 -9 18h-139q-34 0 -53.5 -19.5t-32.5 -59.5h-21l18 109h366l-281 -402q-5 -8 -2.5 -13.5t11.5 -5.5h148q34 0 53.5 19.5t33.5 59.5h21l-18 -109h-377z
" />
    <glyph glyph-name="Zdotaccent" unicode="&#x17b;" horiz-adv-x="568" 
d="M289 738q-20 0 -35 15.5t-15 35.5t15 35t35 15t35 -15t15 -35t-15 -35.5t-35 -15.5zM15 0l394 579q9 17 -9 17l-181 -1q-71 0 -101.5 -24t-49.5 -75h-24l20 125h479l-395 -579q-5 -6 -2 -11.5t11 -5.5l212 3q63 1 94 22.5t56 70.5h24l-26 -121h-502z" />
    <glyph glyph-name="zdotaccent" unicode="&#x17c;" horiz-adv-x="441" 
d="M222 568q-20 0 -35 15.5t-15 35.5t15 35t35 15t35 -15t15 -35t-15 -35.5t-35 -15.5zM15 0l282 403q11 18 -9 18h-139q-34 0 -53.5 -19.5t-32.5 -59.5h-21l18 109h366l-281 -402q-5 -8 -2.5 -13.5t11.5 -5.5h148q34 0 53.5 19.5t33.5 59.5h21l-18 -109h-377z" />
    <glyph glyph-name="Zcaron" unicode="&#x17d;" horiz-adv-x="568" 
d="M289 704l-122 138l11 13l111 -78l110 78l11 -13zM15 0l394 579q9 17 -9 17l-181 -1q-71 0 -101.5 -24t-49.5 -75h-24l20 125h479l-395 -579q-5 -6 -2 -11.5t11 -5.5l212 3q63 1 94 22.5t56 70.5h24l-26 -121h-502z" />
    <glyph glyph-name="zcaron" unicode="&#x17e;" horiz-adv-x="441" 
d="M222 534l-122 138l11 13l111 -78l110 78l11 -13zM15 0l282 403q11 18 -9 18h-139q-34 0 -53.5 -19.5t-32.5 -59.5h-21l18 109h366l-281 -402q-5 -8 -2.5 -13.5t11.5 -5.5h148q34 0 53.5 19.5t33.5 59.5h21l-18 -109h-377z" />
    <glyph glyph-name="florin" unicode="&#x192;" horiz-adv-x="412" 
d="M38 -215q-59 0 -93.5 27t-34.5 62q0 21 13 30.5t30 9.5q20 0 30.5 -16.5t13 -36.5t16 -36.5t40.5 -16.5q43 0 58 35t15 109v451q0 21 -22 21h-42v19q34 4 49 11t15 23v13q0 88 47 135t120 47q60 0 94.5 -27t34.5 -62q0 -20 -13 -29.5t-30 -9.5q-20 0 -30.5 16.5t-13.5 36
t-16.5 36t-40.5 16.5q-43 0 -57.5 -35t-14.5 -109v-28q0 -26 19 -26h109v-27h-109q-19 0 -19 -21v-435q0 -88 -47 -135.5t-121 -47.5z" />
    <glyph glyph-name="uni0218" unicode="&#x218;" horiz-adv-x="536" 
d="M250 -10q-99 0 -190 54q-21 52 -19.5 100t23.5 48q12 0 16 -12q24 -75 79 -118t127 -42q58 2 91.5 29.5t33.5 82.5q0 15 -2.5 27.5t-9.5 23.5t-12 19t-18 16t-19.5 12.5t-25 11.5t-25 9.5t-29 10l-28.5 9.5q-93 32 -144 77.5t-51 117.5q0 76 60 123.5t164 47.5
q101 0 179 -46q21 -53 19.5 -100.5t-23.5 -47.5q-11 0 -16 12q-24 74 -74.5 113.5t-112.5 39.5q-58 0 -86 -32.5t-28 -78.5q0 -53 36.5 -81.5t109.5 -52.5q36 -12 50.5 -17.5t48 -20t50 -27.5t37 -33t29.5 -45.5t9 -56.5q0 -87 -73 -130t-176 -43zM257 -288l-13 14
q15 13 25.5 31.5t10.5 30.5q0 17 -16 17q-22 0 -36.5 14.5t-14.5 37.5q0 24 16.5 38.5t39.5 14.5q29 0 44 -21t15 -52q0 -35 -19.5 -69.5t-51.5 -55.5z" />
    <glyph glyph-name="uni0219" unicode="&#x219;" horiz-adv-x="427" 
d="M205 -6q-72 0 -123.5 29.5t-51.5 83.5q0 23 11 35.5t29 12.5q17 0 27 -10.5t10 -23.5q0 -51 35 -77t83 -26q43 0 66.5 20t23.5 55q0 18 -8 33.5t-17 24t-30 18t-32 13.5t-37 12q-30 9 -52.5 19.5t-46 26.5t-36.5 39.5t-13 53.5q0 57 48 92t126 35q69 0 117.5 -27.5
t48.5 -73.5t-42 -46q-34 0 -34 35q0 39 -30 64t-75 25q-81 0 -81 -72q0 -41 25.5 -60.5t80.5 -37.5q34 -11 47 -15.5t42.5 -18t43 -26t25.5 -33.5t12 -47q0 -60 -54.5 -96.5t-137.5 -36.5zM200 -288l-13 14q15 13 25.5 31.5t10.5 30.5q0 17 -16 17q-22 0 -36.5 14.5
t-14.5 37.5q0 24 16.5 38.5t39.5 14.5q29 0 44 -21t15 -52q0 -35 -19.5 -69.5t-51.5 -55.5z" />
    <glyph glyph-name="uni021A" unicode="&#x21a;" horiz-adv-x="592" 
d="M149 0v21q63 5 82.5 14.5t19.5 36.5v457q0 37 -14 48.5t-68 11.5q-52 0 -76 -19.5t-45 -78.5h-23l16 124q1 8 11 8q32 -2 66 -2h356q36 0 66 2q11 0 12 -8l15 -124h-23q-21 59 -45 78.5t-76 19.5q-54 0 -67.5 -11.5t-13.5 -48.5v-457q0 -27 19.5 -36.5t81.5 -14.5v-21
h-294zM280 -288l-12 14q15 12 25 31t10 31q0 17 -15 17q-22 0 -36.5 14.5t-14.5 37.5q0 24 16 38.5t39 14.5q29 0 44.5 -21t15.5 -52q0 -35 -20 -69.5t-52 -55.5z" />
    <glyph glyph-name="uni021B" unicode="&#x21b;" horiz-adv-x="321" 
d="M200 -5q-53 0 -84.5 29t-31.5 89v277q0 18 -5.5 24.5t-16.5 6.5h-47v22q75 29 118 105q4 8 13 8h9q10 0 10 -10l-1 -69q0 -16 9.5 -21t40.5 -5h77v-36l-77 4q-31 1 -40.5 -5t-9.5 -26v-264q0 -48 13.5 -72t48.5 -24q28 0 56 18l9 -14q-35 -37 -91 -37zM168 -288l-13 14
q15 13 25.5 31.5t10.5 30.5q0 17 -16 17q-22 0 -36.5 14.5t-14.5 37.5q0 24 16.5 38.5t39.5 14.5q29 0 44 -21t15 -52q0 -35 -19.5 -69.5t-51.5 -55.5z" />
    <glyph glyph-name="uni0237" unicode="&#x237;" horiz-adv-x="229" 
d="M36 -200q-38 0 -66 16t-28 46q0 18 10.5 29t29.5 11q14 0 25 -11.5t17.5 -26t15.5 -26t20 -11.5q24 0 24 52v477q0 36 -12.5 49t-52.5 9v19l110 25q35 8 35 -29v-491q0 -65 -35 -101.5t-93 -36.5z" />
    <glyph glyph-name="circumflex" unicode="&#x2c6;" horiz-adv-x="273" 
d="M137 688l121 -138l-11 -14l-110 78l-111 -78l-11 14z" />
    <glyph glyph-name="caron" unicode="&#x2c7;" horiz-adv-x="273" 
d="M137 534l-122 138l11 13l111 -78l110 78l11 -13z" />
    <glyph glyph-name="breve" unicode="&#x2d8;" horiz-adv-x="363" 
d="M181 561q-61 0 -96 34t-35 85q0 11 8 11h11q8 0 10 -8q5 -26 32.5 -45.5t69.5 -19.5t69.5 19.5t33.5 45.5q2 8 10 8h11q8 0 8 -11q0 -51 -35.5 -85t-96.5 -34z" />
    <glyph glyph-name="dotaccent" unicode="&#x2d9;" horiz-adv-x="200" 
d="M100 568q-20 0 -35 15.5t-15 35.5t15 35t35 15t35 -15t15 -35t-15 -35.5t-35 -15.5z" />
    <glyph glyph-name="ring" unicode="&#x2da;" horiz-adv-x="277" 
d="M138 551q-38 0 -63 26t-25 61q0 37 25 62t63 25t63.5 -25.5t25.5 -61.5q0 -35 -25.5 -61t-63.5 -26zM138 587q21 0 35 14t14 37q0 22 -14 36.5t-35 14.5t-35 -14.5t-14 -36.5q0 -23 14 -37t35 -14z" />
    <glyph glyph-name="ogonek" unicode="&#x2db;" horiz-adv-x="309" 
d="M142 -190q-41 0 -73.5 22t-32.5 62q0 43 33.5 74t77.5 49h39q-76 -49 -76 -113q0 -24 16.5 -38.5t37.5 -14.5q56 0 80 54h25q-36 -95 -127 -95z" />
    <glyph glyph-name="tilde" unicode="&#x2dc;" horiz-adv-x="447" 
d="M301 550q-43 0 -105.5 31.5t-81.5 31.5q-17 0 -29.5 -12t-12.5 -34h-22q0 50 27.5 77.5t68.5 27.5q42 0 104.5 -31.5t82.5 -31.5q17 0 29.5 12.5t12.5 33.5h22q0 -50 -27.5 -77.5t-68.5 -27.5z" />
    <glyph glyph-name="hungarumlaut" unicode="&#x2dd;" horiz-adv-x="459" 
d="M46 532q-5 11 9 25l99 105q35 38 63 8q12 -10 6.5 -29.5t-30.5 -34.5l-118 -71q-22 -13 -29 -3zM218 532q-5 11 9 25l99 105q35 38 63 8q12 -10 6.5 -29.5t-30.5 -34.5l-118 -71q-22 -13 -29 -3z" />
    <glyph glyph-name="acutecomb" unicode="&#x301;" horiz-adv-x="0" 
d="M-228 532q-6 11 8 25l99 105q35 38 63 8q12 -10 6.5 -29.5t-30.5 -34.5l-117 -71q-23 -12 -29 -3z" />
    <glyph glyph-name="uni0326" unicode="&#x326;" horiz-adv-x="0" 
d="M-121 -288l-13 14q15 13 25.5 31.5t10.5 30.5q0 17 -16 17q-22 0 -36.5 14.5t-14.5 37.5q0 24 16.5 38.5t39.5 14.5q29 0 44 -21t15 -52q0 -35 -19.5 -69.5t-51.5 -55.5z" />
    <glyph glyph-name="uni0394" unicode="&#x394;" horiz-adv-x="594" 
d="M20 0l280 634l274 -634h-554zM91 72h361l-176 426z" />
    <glyph glyph-name="uni03A9" unicode="&#x3a9;" horiz-adv-x="679" 
d="M613 115h26l-21 -92q-6 -23 -30 -23h-172v118q55 5 87 66.5t32 168.5q0 113 -54 178t-141 65t-141.5 -65t-54.5 -178q0 -107 32 -168.5t88 -66.5v-118h-172q-25 0 -30 23l-22 92h27l17 -27q23 -38 69 -41l68 -3q9 -1 11.5 6.5t0.5 26.5q-78 21 -133 97.5t-55 168.5
q0 116 86 205t209 89t209 -89t86 -205q0 -87 -56 -165.5t-134 -100.5q-2 -19 1 -26.5t13 -6.5l55 3q34 1 52 10.5t30 30.5z" />
    <glyph glyph-name="uni03BC" unicode="&#x3bc;" horiz-adv-x="559" 
d="M484 67q0 -43 51 -34v-12q-20 -27 -67 -27q-58 0 -66 60q-2 12 -9 12t-13 -6l-8 -8q-7 -7 -12 -11l-15 -12t-20.5 -13t-24.5 -10.5t-30 -8.5t-34 -3q-67 0 -107 43q2 -46 11.5 -79.5t20 -47t18 -24.5t6.5 -19q-6 -46 -41 -63q-30 -15 -46 13q-8 14 -8 38v501
q0 36 -12.5 48t-52.5 10v19l110 25q35 8 35 -29v-251q0 -61 30 -98.5t84 -37.5t87 38t33 98v178q0 36 -12.5 48t-52.5 10v19l110 25q35 8 35 -29v-362z" />
    <glyph glyph-name="pi" unicode="&#x3c0;" horiz-adv-x="684" 
d="M610 96q28 -14 17 -55q-11 -34 -50.5 -46.5t-87.5 7.5q-38 17 -55 47t-17 81v259h-137v-273q0 -56 -32 -89t-73 -33q-39 0 -67 10l-13 31q40 -9 71.5 14t31.5 69v271h-56q-25 0 -36.5 -22t-2.5 -59l-36 8q-12 33 -12 58q0 34 22.5 55.5t57.5 21.5h464v-62h-73
q-15 0 -21.5 -7t-6.5 -24v-276q0 -39 24 -49q8 -3 15 8.5t14 28.5t9 20q6 9 20.5 11.5t29.5 -5.5z" />
    <glyph glyph-name="uni0400" unicode="&#x400;" horiz-adv-x="562" 
d="M329 702q-7 -10 -29 3l-117 71q-25 15 -30.5 34.5t6.5 29.5q27 29 62 -8l99 -105q15 -14 9 -25zM30 0v21q33 6 46.5 15.5t13.5 35.5v477q0 26 -13.5 35.5t-46.5 15.5v21h454q14 0 15 -12q6 -52 20 -109h-19q-19 47 -49 70t-80 23h-128q-32 0 -47 -10t-15 -37v-171
q0 -27 14.5 -36t47.5 -9h99q43 0 59 16.5t23 55.5h16v-173h-16q-7 38 -23 55.5t-59 17.5h-99q-32 0 -47 -9.5t-15 -35.5v-181q0 -28 19.5 -38t74.5 -9l115 1q50 1 72.5 14.5t37.5 39.5l24 37h20q-22 -40 -30 -107q-2 -14 -16 -14h-468z" />
    <glyph glyph-name="uni0401" unicode="&#x401;" horiz-adv-x="562" 
d="M192 738q-20 0 -35 15.5t-15 35.5t15 35t35 15t35 -15t15 -35t-15 -35.5t-35 -15.5zM376 738q-20 0 -35 15.5t-15 35.5t15 35t35 15t35 -15t15 -35t-15 -35.5t-35 -15.5zM30 0v21q33 6 46.5 15.5t13.5 35.5v477q0 26 -13.5 35.5t-46.5 15.5v21h454q14 0 15 -12
q6 -52 20 -109h-19q-19 47 -49 70t-80 23h-128q-32 0 -47 -10t-15 -37v-171q0 -27 14.5 -36t47.5 -9h99q43 0 59 16.5t23 55.5h16v-173h-16q-7 38 -23 55.5t-59 17.5h-99q-32 0 -47 -9.5t-15 -35.5v-181q0 -28 19.5 -38t74.5 -9l115 1q50 1 72.5 14.5t37.5 39.5l24 37h20
q-22 -40 -30 -107q-2 -14 -16 -14h-468z" />
    <glyph glyph-name="uni0403" unicode="&#x403;" horiz-adv-x="529" 
d="M220 702q-6 11 8 25l99 105q35 38 63 8q12 -10 6.5 -29.5t-30.5 -34.5l-117 -71q-23 -12 -29 -3zM30 0v21q33 6 46.5 15.5t13.5 35.5v477q0 26 -13 35.5t-47 16.5v20h443l31 -112h-23q-26 53 -42.5 69t-50.5 16h-146q-32 0 -46.5 -9.5t-14.5 -35.5v-477q0 -26 15 -35.5
t56 -15.5v-21h-222z" />
    <glyph glyph-name="uni0404" unicode="&#x404;" horiz-adv-x="639" 
d="M590 139l14 -12q-27 -49 -91.5 -93t-159.5 -44q-132 0 -227.5 88t-95.5 235q0 148 97.5 236t233.5 88q105 0 170.5 -50t65.5 -109q0 -27 -15.5 -44.5t-41.5 -17.5q-23 0 -38 16t-17 46q-4 50 -43 88.5t-114 38.5q-89 0 -145.5 -60.5t-61.5 -166.5l3 3q0 -59 34 -59h224
v-31h-217q-17 0 -23 -11.5t2 -40.5l-3 3q31 -88 103.5 -139t165.5 -51q102 0 180 87z" />
    <glyph glyph-name="uni0405" unicode="&#x405;" horiz-adv-x="534" 
d="M250 -10q-99 0 -190 54q-21 52 -19.5 100t23.5 48q12 0 16 -12q24 -75 79 -118t127 -42q58 2 91.5 29.5t33.5 82.5q0 15 -2.5 27.5t-9.5 23.5t-12 19t-18 16t-19.5 12.5t-25 11.5t-25 9.5t-29 10l-28.5 9.5q-93 32 -144 77.5t-51 117.5q0 76 60 123.5t164 47.5
q101 0 179 -46q21 -53 19.5 -100.5t-23.5 -47.5q-11 0 -16 12q-24 74 -74.5 113.5t-112.5 39.5q-58 0 -86 -32.5t-28 -78.5q0 -53 36.5 -81.5t109.5 -52.5q36 -12 50.5 -17.5t48 -20t50 -27.5t37 -33t29.5 -45.5t9 -56.5q0 -87 -73 -130t-176 -43z" />
    <glyph glyph-name="uni0406" unicode="&#x406;" horiz-adv-x="272" 
d="M30 0v21q33 6 46.5 15.5t13.5 35.5v477q0 26 -13.5 35.5t-46.5 15.5v21h212v-21q-34 -6 -47.5 -15.5t-13.5 -35.5v-477q0 -26 13.5 -35.5t47.5 -15.5v-21h-212z" />
    <glyph glyph-name="uni0407" unicode="&#x407;" horiz-adv-x="272" 
d="M43 738q-20 0 -35 15.5t-15 35.5t15 35t35 15t35 -15t15 -35t-15 -35.5t-35 -15.5zM227 738q-20 0 -35 15.5t-15 35.5t15 35t35 15t35 -15t15 -35t-15 -35.5t-35 -15.5zM30 0v21q33 6 46.5 15.5t13.5 35.5v477q0 26 -13.5 35.5t-46.5 15.5v21h212v-21q-34 -6 -47.5 -15.5
t-13.5 -35.5v-477q0 -26 13.5 -35.5t47.5 -15.5v-21h-212z" />
    <glyph glyph-name="uni0408" unicode="&#x408;" horiz-adv-x="353" 
d="M115 -10q-64 0 -99.5 27t-35.5 66q0 23 12.5 37.5t34.5 14.5q43 0 43 -54q0 -25 13.5 -45t39.5 -20q48 0 48 71v462q0 26 -15 35.5t-55 15.5v21h222v-21q-34 -6 -47.5 -15.5t-13.5 -35.5v-411q0 -148 -147 -148z" />
    <glyph glyph-name="uni040D" unicode="&#x40d;" horiz-adv-x="668" 
d="M232 776q-25 15 -30.5 34.5t6.5 29.5q27 29 62 -8l99 -105q15 -14 9 -25q-7 -10 -29 3zM638 600q-34 -6 -47.5 -15.5t-13.5 -35.5v-477q0 -26 13.5 -35.5t47.5 -15.5v-21h-212v21q33 6 46.5 15.5t13.5 35.5v398l-305 -356v-42q0 -26 13.5 -35.5t47.5 -15.5v-21h-212v21
q33 6 46.5 15.5t13.5 35.5v477q0 26 -13.5 35.5t-46.5 15.5v21h212v-21q-34 -6 -47.5 -15.5t-13.5 -35.5v-393l305 358v35q0 26 -13.5 35.5t-46.5 15.5v21h212v-21z" />
    <glyph glyph-name="uni040E" unicode="&#x40e;" horiz-adv-x="646" 
d="M340 731q-61 0 -96 34t-35 85q0 11 8 11h11q8 0 10 -8q5 -26 32.5 -45.5t69.5 -19.5t69.5 19.5t33.5 45.5q2 8 10 8h11q8 0 8 -11q0 -51 -35.5 -85t-96.5 -34zM452 621h179v-20q-32 -4 -48.5 -19t-32.5 -47l-186 -371q-51 -101 -90 -140t-94 -39q-42 0 -69 19t-27 50
q0 23 13.5 36.5t37.5 13.5q18 0 28 -11.5t12.5 -25.5t10 -25.5t22.5 -11.5q46 0 100 102l-202 378q-28 53 -42.5 69t-48.5 22v20h216v-20q-68 -5 -33 -70l159 -301l152 305q14 30 -2 47t-55 19v20z" />
    <glyph glyph-name="uni0410" unicode="&#x410;" horiz-adv-x="713" 
d="M20 0v21q35 7 54 22.5t35 50.5l193 451q20 46 20 76l57 6l220 -508q24 -56 40.5 -74.5t53.5 -23.5v-21h-225v21q44 7 52 22.5t-7 44.5l-29 65q-17 36 -58 36h-194q-44 0 -57 -30l-29 -66q-25 -61 64 -72v-21h-190zM226 220h204q10 0 15.5 7t0.5 18l-108 251
q-10 24 -20 -1l-106 -248q-5 -13 -1 -20t15 -7z" />
    <glyph glyph-name="uni0411" unicode="&#x411;" horiz-adv-x="597" 
d="M301 385q122 0 189 -52t67 -144q0 -91 -66.5 -140t-189.5 -49h-271v21q33 6 46.5 15.5t13.5 35.5v477q0 26 -13 35.5t-47 16.5v20h443l31 -112h-23q-26 53 -42.5 69t-50.5 16h-146q-32 0 -46.5 -9.5t-14.5 -35.5v-111q0 -28 12.5 -40.5t42.5 -12.5h65zM301 31
q159 0 159 160q0 162 -159 162h-65q-30 0 -42.5 -12.5t-12.5 -40.5v-227q0 -7 2 -17q3 -14 15 -21q8 -4 22 -4h81z" />
    <glyph glyph-name="uni0412" unicode="&#x412;" horiz-adv-x="620" 
d="M30 0v21q33 6 46.5 15.5t13.5 35.5v478q0 25 -13.5 34.5t-46.5 15.5v21h290q107 0 165.5 -36.5t58.5 -106.5q0 -111 -145 -145q88 -14 134.5 -55t46.5 -108q0 -75 -57 -122.5t-149 -47.5q-13 0 -86.5 3.5t-143 3.5t-114.5 -7zM243 350h74q135 0 135 124q0 120 -133 120
h-76q-32 0 -47 -9t-15 -34v-158q0 -25 14.5 -34t47.5 -9zM217 30h125q146 0 146 137q0 79 -54.5 117t-187.5 38q-34 0 -49.5 -9t-15.5 -34v-205q0 -44 36 -44z" />
    <glyph glyph-name="uni0413" unicode="&#x413;" horiz-adv-x="529" 
d="M30 0v21q33 6 46.5 15.5t13.5 35.5v477q0 26 -13 35.5t-47 16.5v20h443l31 -112h-23q-26 53 -42.5 69t-50.5 16h-146q-32 0 -46.5 -9.5t-14.5 -35.5v-477q0 -26 15 -35.5t56 -15.5v-21h-222z" />
    <glyph glyph-name="uni0414" unicode="&#x414;" horiz-adv-x="690" 
d="M25 -115v137q0 10 10 11q83 12 114.5 145t31.5 370q0 29 -17 40t-62 13v20h554v-20q-40 -2 -59.5 -13.5t-19.5 -39.5v-476q0 -23 16 -31t57 -8q12 0 10 -10l-24 -138h-21q0 34 -4 52t-13 32.5t-32.5 20t-55 8t-88.5 2.5h-164q-129 0 -170.5 -23.5t-41.5 -91.5h-21zM97 33
h331q30 0 44 8.5t14 31.5v475q0 27 -14 36.5t-44 9.5h-157q-30 0 -44 -9.5t-14 -36.5q0 -464 -116 -515z" />
    <glyph glyph-name="uni0415" unicode="&#x415;" horiz-adv-x="562" 
d="M30 0v21q33 6 46.5 15.5t13.5 35.5v477q0 26 -13.5 35.5t-46.5 15.5v21h454q14 0 15 -12q6 -52 20 -109h-19q-19 47 -49 70t-80 23h-128q-32 0 -47 -10t-15 -37v-171q0 -27 14.5 -36t47.5 -9h99q43 0 59 16.5t23 55.5h16v-173h-16q-7 38 -23 55.5t-59 17.5h-99
q-32 0 -47 -9.5t-15 -35.5v-181q0 -28 19.5 -38t74.5 -9l115 1q50 1 72.5 14.5t37.5 39.5l24 37h20q-22 -40 -30 -107q-2 -14 -16 -14h-468z" />
    <glyph glyph-name="uni0416" unicode="&#x416;" horiz-adv-x="969" 
d="M824 103q25 -32 49 -50.5t37 -23t34 -8.5v-21h-224v21q27 1 35 13t-12 41l-144 177q-37 46 -68 46h-4v-226q0 -26 13.5 -35.5t47.5 -15.5v-21h-212v21q33 6 46.5 15.5t13.5 35.5v226h-3q-31 0 -68 -46l-144 -177q-20 -29 -12 -41t35 -13v-21h-224v21q21 4 34 8.5t37 23
t49 50.5l168 214q9 12 12.5 18t3.5 16.5t-7 20.5l-145 181q-10 15 -21 13t-18 -10.5t-20.5 -17.5t-28.5 -9q-20 0 -34.5 14t-14.5 35q0 22 16 36t46 14q17 0 30.5 -4t25 -14t18.5 -17t19 -24t18 -24l140 -172q36 -46 85 -46h3v222q0 26 -13.5 35.5t-46.5 15.5v21h212v-21
q-34 -6 -47.5 -15.5t-13.5 -35.5v-222h4q49 0 85 46l139 172q6 7 18 24t19 24t18.5 17t25 14t30.5 4q31 0 47 -14t16 -36q0 -21 -14.5 -35t-34.5 -14q-15 0 -29 9t-20.5 17.5t-17.5 10.5t-21 -13l-145 -181q-17 -22 9 -55z" />
    <glyph glyph-name="uni0417" unicode="&#x417;" horiz-adv-x="554" 
d="M263 -12q-96 0 -162 49.5t-66 126.5q0 62 49 62q22 0 29 -9.5t12.5 -42t15.5 -58.5q39 -101 129 -101q66 0 109 53t43 129q0 65 -34 99t-85 34q-29 0 -81 -19l-10 26q43 14 62.5 21.5t47 21.5t39.5 27.5t21 34.5t9 49q0 50 -27 82t-85 32q-62 0 -112 -39t-74 -111
q-4 -12 -16 -12q-22 0 -23 47.5t19 100.5q78 46 182 46q102 0 160 -42t58 -103q0 -91 -135 -133q58 7 117 -37.5t59 -126.5q0 -89 -72 -148t-179 -59z" />
    <glyph glyph-name="uni0418" unicode="&#x418;" horiz-adv-x="668" 
d="M638 600q-34 -6 -47.5 -15.5t-13.5 -35.5v-477q0 -26 13.5 -35.5t47.5 -15.5v-21h-212v21q33 6 46.5 15.5t13.5 35.5v398l-305 -356v-42q0 -26 13.5 -35.5t47.5 -15.5v-21h-212v21q33 6 46.5 15.5t13.5 35.5v477q0 26 -13.5 35.5t-46.5 15.5v21h212v-21
q-34 -6 -47.5 -15.5t-13.5 -35.5v-393l305 358v35q0 26 -13.5 35.5t-46.5 15.5v21h212v-21z" />
    <glyph glyph-name="uni0419" unicode="&#x419;" horiz-adv-x="668" 
d="M331 731q-61 0 -96 34t-35 85q0 11 8 11h11q8 0 10 -8q5 -26 32.5 -45.5t69.5 -19.5t69.5 19.5t33.5 45.5q2 8 10 8h11q8 0 8 -11q0 -51 -35.5 -85t-96.5 -34zM638 600q-34 -6 -47.5 -15.5t-13.5 -35.5v-477q0 -26 13.5 -35.5t47.5 -15.5v-21h-212v21q33 6 46.5 15.5
t13.5 35.5v398l-305 -356v-42q0 -26 13.5 -35.5t47.5 -15.5v-21h-212v21q33 6 46.5 15.5t13.5 35.5v477q0 26 -13.5 35.5t-46.5 15.5v21h212v-21q-34 -6 -47.5 -15.5t-13.5 -35.5v-393l305 358v35q0 26 -13.5 35.5t-46.5 15.5v21h212v-21z" />
    <glyph glyph-name="uni041A" unicode="&#x41a;" horiz-adv-x="623" 
d="M478 103q25 -32 49 -50.5t37 -23t34 -8.5v-21h-224v21q27 1 35 13t-12 41l-144 177q-37 46 -68 46h-4v-226q0 -26 13.5 -35.5t47.5 -15.5v-21h-212v21q33 6 46.5 15.5t13.5 35.5v477q0 26 -13.5 35.5t-46.5 15.5v21h212v-21q-34 -6 -47.5 -15.5t-13.5 -35.5v-222h4
q49 0 85 46l139 172q6 7 18 24t19 24t18.5 17t25 14t30.5 4q31 0 47 -14t16 -36q0 -21 -14.5 -35t-34.5 -14q-15 0 -29 9t-20.5 17.5t-17.5 10.5t-21 -13l-145 -181q-17 -22 9 -55z" />
    <glyph glyph-name="uni041B" unicode="&#x41b;" horiz-adv-x="706" 
d="M105 -11q-39 0 -64.5 17.5t-25.5 49.5q0 22 13 36t36 14q21 0 27.5 -13t4.5 -28.5t3.5 -28.5t24.5 -13q73 0 73 175v351q0 26 -17 35.5t-60 16.5v20h556v-20q-34 -7 -47 -16.5t-13 -35.5v-477q0 -26 13.5 -35.5t46.5 -15.5v-21h-211v21q33 6 46.5 15.5t13.5 35.5v477
q0 26 -13 33t-47 7h-178q-19 0 -29 -2t-17.5 -11t-7.5 -27v-329v-9q0 -28 -0.5 -44.5t-3.5 -47t-11.5 -49.5t-22 -39.5t-36.5 -31t-54 -10.5z" />
    <glyph glyph-name="uni041C" unicode="&#x41c;" horiz-adv-x="800" 
d="M30 0v21q34 6 48 15.5t14 35.5v477q0 26 -14 35.5t-48 15.5v21h156l221 -456l211 456h152v-21q-33 -6 -46.5 -15.5t-13.5 -35.5v-477q0 -26 13.5 -35.5t46.5 -15.5v-21h-211v21q33 6 46.5 15.5t13.5 35.5v475l-225 -488h-30l-239 490v-477q0 -26 14 -35.5t47 -15.5v-21
h-156z" />
    <glyph glyph-name="uni041D" unicode="&#x41d;" horiz-adv-x="686" 
d="M656 600q-33 -6 -46.5 -15.5t-13.5 -35.5v-477q0 -26 13.5 -35.5t46.5 -15.5v-21h-211v21q33 6 46.5 15.5t13.5 35.5v189q0 34 -34 34h-255q-35 0 -35 -34v-189q0 -26 13.5 -35.5t47.5 -15.5v-21h-212v21q33 6 46.5 15.5t13.5 35.5v477q0 26 -13.5 35.5t-46.5 15.5v21
h212v-21q-34 -6 -47.5 -15.5t-13.5 -35.5v-192q0 -35 36 -35h253q35 0 35 35v192q0 26 -13.5 35.5t-46.5 15.5v21h211v-21z" />
    <glyph glyph-name="uni041E" unicode="&#x41e;" horiz-adv-x="701" 
d="M344 -10q-135 0 -224.5 90t-89.5 228q0 140 94 234.5t233 94.5q135 0 224.5 -90t89.5 -227q0 -141 -94 -235.5t-233 -94.5zM370 23q82 0 140.5 64t58.5 197q0 140 -69 230t-169 90q-82 0 -140.5 -63.5t-58.5 -195.5q0 -141 69 -231.5t169 -90.5z" />
    <glyph glyph-name="uni041F" unicode="&#x41f;" horiz-adv-x="670" 
d="M640 600q-33 -6 -46.5 -15.5t-13.5 -35.5v-477q0 -26 13.5 -35.5t46.5 -15.5v-21h-211v21q33 6 46.5 15.5t13.5 35.5v477q0 27 -17 38q-8 3 -18 3h-238q-7 0 -17 -2q-18 -12 -18 -39v-477q0 -26 13.5 -35.5t47.5 -15.5v-21h-212v21q33 6 46.5 15.5t13.5 35.5v477
q0 26 -13.5 35.5t-46.5 15.5v21h610v-21z" />
    <glyph glyph-name="uni0420" unicode="&#x420;" horiz-adv-x="582" 
d="M30 0v21q33 6 46.5 15.5t13.5 35.5v477q0 26 -13.5 35.5t-46.5 15.5v21h271q123 0 189.5 -49t66.5 -140t-67 -142.5t-189 -51.5h-65q-30 0 -42.5 -13t-12.5 -41v-112q0 -26 15 -35.5t56 -15.5v-21h-222zM236 266h65q159 0 159 164q0 163 -159 163h-71q-26 0 -37.5 -9.5
t-11.5 -35.5v-227q0 -29 12.5 -42t42.5 -13z" />
    <glyph glyph-name="uni0421" unicode="&#x421;" horiz-adv-x="639" 
d="M353 -10q-132 0 -227.5 88t-95.5 235q0 148 97.5 236t233.5 88q105 0 170.5 -50t65.5 -109q0 -27 -15.5 -44.5t-41.5 -17.5q-23 0 -38 16t-17 46q-4 50 -43 88.5t-114 38.5q-93 0 -150 -65.5t-57 -178.5q0 -137 83.5 -223t205.5 -86q102 0 180 87l14 -12
q-27 -49 -91.5 -93t-159.5 -44z" />
    <glyph glyph-name="uni0422" unicode="&#x422;" horiz-adv-x="592" 
d="M149 0v21q63 5 82.5 14.5t19.5 36.5v457q0 37 -14 48.5t-68 11.5q-52 0 -76 -19.5t-45 -78.5h-23l16 124q1 8 11 8q32 -2 66 -2h356q36 0 66 2q11 0 12 -8l15 -124h-23q-21 59 -45 78.5t-76 19.5q-54 0 -67.5 -11.5t-13.5 -48.5v-457q0 -27 19.5 -36.5t81.5 -14.5v-21
h-294z" />
    <glyph glyph-name="uni0423" unicode="&#x423;" horiz-adv-x="646" 
d="M452 621h179v-20q-32 -4 -48.5 -19t-32.5 -47l-186 -371q-51 -101 -90 -140t-94 -39q-42 0 -69 19t-27 50q0 23 13.5 36.5t37.5 13.5q18 0 28 -11.5t12.5 -25.5t10 -25.5t22.5 -11.5q46 0 100 102l-202 378q-28 53 -42.5 69t-48.5 22v20h216v-20q-68 -5 -33 -70l159 -301
l152 305q14 30 -2 47t-55 19v20z" />
    <glyph glyph-name="uni0424" unicode="&#x424;" horiz-adv-x="740" 
d="M264 0v21q34 6 47.5 16t13.5 37q0 29 -12 42t-43 13h-22q-103 0 -160.5 47.5t-57.5 134.5t57.5 134.5t160.5 47.5h22q31 0 43 12.5t12 41.5q0 27 -13.5 37t-47.5 17v20h212v-20q-34 -7 -47 -17t-13 -37q0 -29 12 -41.5t43 -12.5h21q103 0 160.5 -47.5t57.5 -134.5
t-57.5 -134.5t-160.5 -47.5h-21q-31 0 -43 -13t-12 -42q0 -27 13 -37t47 -16v-21h-212zM248 160h22q30 0 42.5 12.5t12.5 40.5v196q0 28 -12.5 40.5t-42.5 12.5h-22q-119 0 -119 -151t119 -151zM471 160h21q119 0 119 151t-119 151h-21q-30 0 -42.5 -12.5t-12.5 -40.5v-196
q0 -28 12.5 -40.5t42.5 -12.5z" />
    <glyph glyph-name="uni0425" unicode="&#x425;" horiz-adv-x="665" 
d="M20 0v21q37 3 83.5 43.5t144.5 165.5l50 64l-146 209q-36 53 -61 73t-60 24v21h221v-21q-33 -4 -39 -15t15 -43l128 -183q141 178 129 220q-4 19 -35 21v21h193v-21q-36 -3 -81 -43t-144 -166l-45 -57l150 -215q37 -53 62 -73.5t60 -24.5v-21h-221v21q33 4 38.5 15
t-14.5 43l-132 190q-144 -181 -138 -225q3 -20 36 -23v-21h-194z" />
    <glyph glyph-name="uni0426" unicode="&#x426;" horiz-adv-x="709" 
d="M674 33q12 0 10 -10l-24 -138h-21q0 42 -4.5 62t-26 33.5t-55.5 16.5t-103 3h-420v21q33 6 46.5 15.5t13.5 35.5v477q0 26 -13.5 35.5t-46.5 15.5v21h212v-21q-34 -6 -47.5 -15.5t-13.5 -35.5v-477q0 -24 14 -31.5t46 -7.5h211q30 0 44 7.5t14 31.5v477q0 26 -13.5 35.5
t-47.5 15.5v21h212v-21q-33 -6 -46.5 -15.5t-13.5 -35.5v-477q0 -23 16 -31t57 -8z" />
    <glyph glyph-name="uni0427" unicode="&#x427;" horiz-adv-x="668" 
d="M426 0v21q33 6 46.5 15.5t13.5 35.5v122q0 37 -17 37q-6 0 -12 -7q-19 -23 -69.5 -43.5t-112.5 -20.5q-75 0 -128.5 43.5t-53.5 135.5v210q0 25 -14.5 35t-48.5 17v20h222v-20q-38 -7 -53 -16.5t-15 -35.5v-190q0 -63 38.5 -102t118.5 -39q65 0 105 40t40 97v194
q0 26 -13 35.5t-47 16.5v20h212v-20q-34 -7 -47.5 -16.5t-13.5 -35.5v-477q0 -26 13.5 -35.5t47.5 -15.5v-21h-212z" />
    <glyph glyph-name="uni0428" unicode="&#x428;" horiz-adv-x="868" 
d="M838 600q-34 -6 -47.5 -15.5t-13.5 -35.5v-477q0 -26 13.5 -35.5t47.5 -15.5v-21h-808v21q33 6 46.5 15.5t13.5 35.5v477q0 26 -13.5 35.5t-46.5 15.5v21h212v-21q-34 -6 -47.5 -15.5t-13.5 -35.5v-477q0 -23 16 -31t59 -8h75q30 0 43.5 7.5t13.5 31.5v477
q0 26 -13.5 35.5t-46.5 15.5v21h212v-21q-34 -6 -47.5 -15.5t-13.5 -35.5v-477q0 -23 16 -31t59 -8h75q30 0 43.5 7.5t13.5 31.5v477q0 26 -13.5 35.5t-46.5 15.5v21h212v-21z" />
    <glyph glyph-name="uni0429" unicode="&#x429;" horiz-adv-x="887" 
d="M852 33q12 0 10 -10l-24 -138h-21q0 42 -4.5 62t-26 33.5t-55.5 16.5t-103 3h-597v21q34 6 47.5 15.5t13.5 35.5v477q0 26 -13.5 35.5t-47.5 15.5v21h212v-21q-33 -6 -46.5 -15.5t-13.5 -35.5v-477q0 -23 16 -31t59 -8h74q30 0 44 7.5t14 31.5v477q0 26 -13.5 35.5
t-47.5 15.5v21h212v-21q-33 -6 -46.5 -15.5t-13.5 -35.5v-477q0 -23 16 -31t59 -8h74q30 0 44 7.5t14 31.5v477q0 26 -13.5 35.5t-47.5 15.5v21h212v-21q-33 -6 -46.5 -15.5t-13.5 -35.5v-477q0 -23 16 -31t57 -8z" />
    <glyph glyph-name="uni042A" unicode="&#x42a;" horiz-adv-x="677" 
d="M125 0v21q33 6 46.5 15.5t13.5 35.5v477q0 45 -52 45q-35 0 -52 -16.5t-43 -68.5h-23l31 112h290v-20q-34 -7 -47 -16.5t-13 -35.5v-111q0 -28 12.5 -40.5t42.5 -12.5h65q122 0 189 -52t67 -144q0 -91 -66.5 -140t-189.5 -49h-271zM315 31h81q158 0 158 160
q0 162 -158 162h-65q-30 0 -42.5 -12.5t-12.5 -40.5v-227q0 -24 9.5 -33t29.5 -9z" />
    <glyph glyph-name="uni042B" unicode="&#x42b;" horiz-adv-x="837" 
d="M301 385q122 0 189 -52t67 -144q0 -91 -66.5 -140t-189.5 -49h-271v21q33 6 46.5 15.5t13.5 35.5v477q0 26 -13.5 35.5t-46.5 15.5v21h212v-21q-34 -6 -47.5 -15.5t-13.5 -35.5v-111q0 -28 12.5 -40.5t42.5 -12.5h65zM807 600q-33 -6 -46.5 -15.5t-13.5 -35.5v-477
q0 -26 13.5 -35.5t46.5 -15.5v-21h-212v21q34 6 47.5 15.5t13.5 35.5v477q0 26 -13.5 35.5t-47.5 15.5v21h212v-21zM301 31q159 0 159 160q0 162 -159 162h-65q-30 0 -42.5 -12.5t-12.5 -40.5v-227q0 -12 3 -21q1 -3 6 -11q9 -10 30 -10h81z" />
    <glyph glyph-name="uni042C" unicode="&#x42c;" horiz-adv-x="579" 
d="M301 385q122 0 189 -52t67 -144q0 -91 -66.5 -140t-189.5 -49h-271v21q33 6 46.5 15.5t13.5 35.5v477q0 26 -13.5 35.5t-46.5 15.5v21h212v-21q-34 -6 -47.5 -15.5t-13.5 -35.5v-111q0 -28 12.5 -40.5t42.5 -12.5h65zM301 31q159 0 159 160q0 162 -159 162h-65
q-30 0 -42.5 -12.5t-12.5 -40.5v-227q0 -12 3 -21q1 -3 6 -11q9 -10 30 -10h81z" />
    <glyph glyph-name="uni042D" unicode="&#x42d;" horiz-adv-x="639" 
d="M279 637q87 0 161.5 -37.5t121.5 -112.5t47 -174q0 -147 -95.5 -235t-226.5 -88q-96 0 -160.5 44t-91.5 93l14 12q78 -87 180 -87q93 0 165.5 51t103.5 138l-2 -2q16 52 -21 52h-217v31h223q35 0 35 59l2 -2q-5 106 -61 166t-145 60q-76 0 -115 -38.5t-43 -88.5
q-5 -62 -55 -62q-26 0 -41.5 17.5t-15.5 44.5q0 59 66 109t171 50z" />
    <glyph glyph-name="uni042E" unicode="&#x42e;" horiz-adv-x="975" 
d="M631 637q135 0 224.5 -90t89.5 -227q0 -141 -94 -235.5t-233 -94.5q-131 0 -220.5 86t-93.5 219h-123v-223q0 -26 13.5 -35.5t47.5 -15.5v-21h-212v21q33 6 46.5 15.5t13.5 35.5v477q0 26 -13.5 35.5t-46.5 15.5v21h212v-21q-34 -6 -47.5 -15.5t-13.5 -35.5v-223h123
q7 134 100 222.5t227 88.5zM644 23q82 0 140.5 64t58.5 197q0 140 -69 230t-169 90q-82 0 -140.5 -63.5t-58.5 -195.5q0 -141 69 -231.5t169 -90.5z" />
    <glyph glyph-name="uni042F" unicode="&#x42f;" horiz-adv-x="615" 
d="M585 0h-221v21q40 6 55 15.5t15 35.5v156q0 30 -15 42t-58 12q-63 0 -98 -27t-58 -96q-31 -97 -59.5 -128t-98.5 -31h-26v21q28 0 46 31.5t45 117.5q29 97 107 120q3 1 4.5 2.5t0 3.5t-4.5 3q-141 36 -141 154q0 80 60 124t175 44h272v-21q-33 -6 -46.5 -15.5
t-13.5 -35.5v-477q0 -26 13.5 -35.5t46.5 -15.5v-21zM379 312q30 0 42.5 12.5t12.5 41.5v182q0 26 -14.5 35.5t-50.5 9.5h-59q-140 0 -140 -142q0 -139 137 -139h72z" />
    <glyph glyph-name="uni0430" unicode="&#x430;" horiz-adv-x="488" 
d="M160 -6q-55 0 -92.5 27.5t-37.5 82.5q0 63 63 103.5t221 58.5q24 2 24 27v24q0 55 -27 86t-82 31q-84 0 -84 -73q0 -52 -44 -52q-20 0 -30.5 12.5t-10.5 33.5q0 53 57.5 79t137.5 26q88 0 125.5 -39.5t37.5 -124.5v-229q0 -43 51 -34v-12q-20 -27 -67 -27q-62 0 -65 73
q1 7 -4 7t-10 -7q-28 -34 -72 -53.5t-91 -19.5zM207 40q54 0 92.5 34.5t38.5 85.5v46q0 19 -8 28t-32 6q-182 -22 -182 -118q0 -35 23 -58.5t68 -23.5z" />
    <glyph glyph-name="uni0431" unicode="&#x431;" horiz-adv-x="509" 
d="M256 -6q-38 0 -74 14.5t-72 48t-58 99.5t-22 158q-1 155 60 231t189 76h58q38 0 53 3.5t26 15.5h19q0 -61 -33 -79t-119 -18h-53q-73 0 -115 -32t-42 -87q0 -49 35 -49q11 0 28.5 13.5t35.5 29t50.5 29t69.5 13.5q83 0 135 -60t52 -165q0 -114 -62.5 -177.5t-160.5 -63.5
zM264 21q59 0 96 48t37 127q0 88 -44.5 147.5t-110.5 59.5q-56 0 -89 -46t-33 -125q0 -89 41 -150t103 -61z" />
    <glyph glyph-name="uni0432" unicode="&#x432;" horiz-adv-x="465" 
d="M30 0v19q32 5 43 14.5t11 36.5v316q0 24 -12.5 33.5t-41.5 12.5v19h212q80 0 127.5 -26.5t47.5 -79.5q0 -76 -104 -99q58 -10 92.5 -41.5t34.5 -76.5q0 -128 -189 -128q-49 0 -86.5 2t-40.5 2q-50 0 -94 -4zM189 259h56q43 0 66.5 21t23.5 59q0 39 -23.5 60.5t-66.5 21.5
h-56q-25 0 -25 -25v-112q0 -25 25 -25zM196 31h52q55 0 83.5 24.5t28.5 69.5q0 104 -156 104h-15q-25 0 -25 -25v-133q0 -21 7 -30.5t25 -9.5z" />
    <glyph glyph-name="uni0433" unicode="&#x433;" horiz-adv-x="437" 
d="M30 0v19q32 5 43 14.5t11 37.5v315q0 24 -12.5 33.5t-41.5 12.5v19h365l18 -105h-19q-17 44 -39.5 59.5t-78.5 15.5h-87q-25 0 -25 -26v-324q0 -28 11 -37.5t43 -14.5v-19h-188z" />
    <glyph glyph-name="uni0434" unicode="&#x434;" horiz-adv-x="578" 
d="M20 -110v130q0 10 10 11q141 20 141 362q0 36 -79 39v19h464v-19q-79 -3 -79 -38v-320q0 -25 16.5 -34.5t55.5 -9.5q13 0 11 -12l-24 -128h-19q0 76 -24 93t-127 17h-161q-106 0 -136 -20.5t-30 -89.5h-19zM97 30h242q29 0 43.5 9.5t14.5 34.5v317q0 16 -8 23t-28 7h-129
q-18 0 -24.5 -6t-6.5 -22q0 -139 -26.5 -236.5t-77.5 -126.5z" />
    <glyph glyph-name="uni0435" unicode="&#x435;" horiz-adv-x="478" 
d="M260 -6q-97 0 -163.5 64t-66.5 170q0 107 66.5 169.5t165.5 62.5q75 0 119.5 -36.5t44.5 -93.5q0 -49 -42 -70t-149 -26l-89 -4q-31 -1 -25 -42q10 -64 61 -102t120 -38q81 0 125 57l16 -13q-19 -36 -66 -67t-117 -31zM148 255l73 1q71 2 97 17.5t26 55.5q0 45 -25 74.5
t-75 29.5q-56 0 -88.5 -35.5t-39.5 -97.5q-3 -29 4.5 -37.5t27.5 -7.5z" />
    <glyph glyph-name="uni0436" unicode="&#x436;" horiz-adv-x="772" 
d="M653 88q59 -62 94 -69v-19h-177v19q42 9 17 36l-122 132q-12 14 -31 14h-10v-130q0 -28 11 -37.5t43 -14.5v-19h-188v19q32 5 43 14.5t11 37.5v130h-10q-20 0 -32 -14l-122 -132q-25 -27 17 -36v-19h-177v19q35 7 94 69l137 146q16 18 0 38l-107 123q-10 12 -17.5 12.5
t-12.5 -6t-15.5 -13t-23.5 -6.5q-16 0 -28 9.5t-12 27.5q0 17 13 27.5t36 10.5q25 0 43.5 -13.5t41.5 -40.5l110 -129q25 -30 54 -30h11v136q0 28 -11 37.5t-43 14.5v19h188v-19q-32 -5 -43 -14.5t-11 -37.5v-136h10q29 0 54 30l110 129q23 27 41.5 40.5t44.5 13.5
q23 0 36 -10.5t13 -27.5t-12.5 -27t-28.5 -10q-13 0 -23.5 6.5t-15.5 13t-12.5 6t-17.5 -12.5l-106 -123q-18 -20 0 -38z" />
    <glyph glyph-name="uni0437" unicode="&#x437;" horiz-adv-x="432" 
d="M206 -8q-81 0 -128.5 40t-47.5 98q0 19 9.5 29.5t26.5 10.5q18 0 24.5 -8t11 -32.5t10.5 -39.5q11 -30 37.5 -51t66.5 -21q49 0 78 34t29 84q0 43 -22.5 67t-57.5 24q-17 0 -56 -16l-9 22q64 24 89.5 52.5t25.5 77.5q0 71 -72 71q-92 0 -119 -101q-1 -3 -2.5 -8.5
t-2 -7.5t-2.5 -5t-3.5 -4t-4 -2t-6.5 -1q-24 0 -24 39.5t14 76.5q75 39 152 39q70 0 107 -30t37 -75q0 -32 -20 -58.5t-51 -39.5q47 -3 79 -31t32 -77q0 -68 -59 -112.5t-142 -44.5z" />
    <glyph glyph-name="uni0438" unicode="&#x438;" horiz-adv-x="568" 
d="M538 432q-33 -5 -44 -14.5t-11 -37.5v-309q0 -28 11 -37.5t44 -14.5v-19h-189v19q32 5 43 14.5t11 37.5v261l-239 -245v-16q0 -28 11 -37.5t43 -14.5v-19h-188v19q32 5 43 14.5t11 37.5v309q0 28 -11 37.5t-43 14.5v19h188v-19q-32 -5 -43 -14.5t-11 -37.5v-261l239 245
v16q0 28 -11 37.5t-43 14.5v19h189v-19z" />
    <glyph glyph-name="uni0439" unicode="&#x439;" horiz-adv-x="568" 
d="M284 561q-61 0 -96 34t-35 85q0 11 8 11h11q8 0 10 -8q5 -26 32.5 -45.5t69.5 -19.5t69.5 19.5t33.5 45.5q2 8 10 8h11q8 0 8 -11q0 -51 -35.5 -85t-96.5 -34zM538 432q-33 -5 -44 -14.5t-11 -37.5v-309q0 -28 11 -37.5t44 -14.5v-19h-189v19q32 5 43 14.5t11 37.5v261
l-239 -245v-16q0 -28 11 -37.5t43 -14.5v-19h-188v19q32 5 43 14.5t11 37.5v309q0 28 -11 37.5t-43 14.5v19h188v-19q-32 -5 -43 -14.5t-11 -37.5v-261l239 245v16q0 28 -11 37.5t-43 14.5v19h189v-19z" />
    <glyph glyph-name="uni043A" unicode="&#x43a;" horiz-adv-x="503" 
d="M394 88q57 -62 94 -69v-19h-177v19q41 9 16 36l-122 132q-12 14 -31 14h-10v-130q0 -28 11 -37.5t43 -14.5v-19h-188v19q32 5 43 14.5t11 37.5v309q0 28 -11 37.5t-43 14.5v19h188v-19q-32 -5 -43 -14.5t-11 -37.5v-136h11q29 0 54 30l110 129q23 28 41 41t44 13
q23 0 36 -10.5t13 -27.5t-12.5 -27t-27.5 -10q-16 0 -29.5 11t-18.5 14t-22 -12l-106 -123q-16 -20 0 -38z" />
    <glyph glyph-name="uni043B" unicode="&#x43b;" horiz-adv-x="588" 
d="M107 -11q-39 0 -63 16.5t-24 47.5q0 23 13.5 36t33.5 13t27.5 -13t6 -28t5 -28t25.5 -13q14 0 24.5 7t17 22t10.5 31t6 41t2.5 44t0.5 48v167q0 27 -17.5 37t-63.5 15v19h447v-19q-33 -5 -44 -14.5t-11 -37.5v-309q0 -28 11 -37.5t44 -14.5v-19h-189v19q32 5 43 14.5
t11 37.5v309q0 27 -10.5 34t-43.5 7h-94q-33 0 -43.5 -7t-10.5 -34v-159q0 -47 -1.5 -75t-7.5 -61.5t-17.5 -52t-33.5 -31t-54 -12.5z" />
    <glyph glyph-name="uni043C" unicode="&#x43c;" horiz-adv-x="623" 
d="M593 432q-32 -5 -43 -14.5t-11 -37.5v-309q0 -28 11 -37.5t43 -14.5v-19h-188v19q32 5 43 14.5t11 37.5v314l-162 -348h-21l-164 343v-309q0 -28 10.5 -37.5t42.5 -14.5v-19h-135v19q32 5 43 14.5t11 37.5v309q0 28 -11 37.5t-43 14.5v19h131l151 -317l147 317h134v-19z
" />
    <glyph glyph-name="uni043D" unicode="&#x43d;" horiz-adv-x="583" 
d="M553 432q-33 -5 -44 -14.5t-11 -37.5v-309q0 -28 11 -37.5t44 -14.5v-19h-189v19q32 5 43 14.5t11 37.5v138h-254v-138q0 -28 11 -37.5t43 -14.5v-19h-188v19q32 5 43 14.5t11 37.5v309q0 28 -11 37.5t-43 14.5v19h188v-19q-32 -5 -43 -14.5t-11 -37.5v-141h254v141
q0 28 -11 37.5t-43 14.5v19h189v-19z" />
    <glyph glyph-name="uni043E" unicode="&#x43e;" horiz-adv-x="520" 
d="M259 -6q-95 0 -162 63.5t-67 168.5t67.5 169.5t164.5 64.5q95 0 161.5 -63.5t66.5 -167.5q0 -105 -67.5 -170t-163.5 -65zM284 22q54 0 87 43.5t33 126.5q0 99 -47.5 169.5t-120.5 70.5q-54 0 -86.5 -43t-32.5 -126q0 -100 47 -170.5t120 -70.5z" />
    <glyph glyph-name="uni043F" unicode="&#x43f;" horiz-adv-x="588" 
d="M30 0v19q32 5 43 14.5t11 37.5v309q0 28 -11 37.5t-43 14.5v19h528v-19q-33 -5 -44 -14.5t-11 -37.5v-309q0 -28 11 -37.5t44 -14.5v-19h-189v19q32 5 43 14.5t11 37.5v309q0 27 -10.5 34t-43.5 7h-151q-33 0 -43.5 -7t-10.5 -34v-309q0 -28 11 -37.5t43 -14.5v-19h-188z
" />
    <glyph glyph-name="uni0440" unicode="&#x440;" horiz-adv-x="551" 
d="M21 -190v21q36 4 50 15t14 38v472q0 36 -12.5 49t-52.5 9v19l110 25q35 8 35 -31v-14q0 -9 5.5 -11.5t13.5 5.5q17 19 56 36t84 17q84 0 140.5 -62.5t56.5 -164.5q0 -110 -64 -174.5t-152 -64.5q-27 0 -52.5 6.5t-40 13.5t-26.5 11t-16.5 -0.5t-4.5 -21.5v-119
q0 -27 15 -38t54 -15v-21h-213zM310 20q61 0 96.5 47.5t35.5 126.5q0 90 -45.5 150.5t-115.5 60.5q-46 0 -81 -28t-35 -94v-104q0 -78 44.5 -118.5t100.5 -40.5z" />
    <glyph glyph-name="uni0441" unicode="&#x441;" horiz-adv-x="487" 
d="M266 -6q-99 0 -167.5 63t-68.5 169q0 108 71 171t172 63q77 0 124.5 -36.5t47.5 -80.5q0 -21 -12.5 -34.5t-32.5 -13.5q-40 0 -44 44q-4 39 -29 66.5t-76 27.5q-64 0 -101.5 -46t-37.5 -127q0 -97 57.5 -154t143.5 -57q81 0 122 64l17 -14q-16 -39 -65 -72t-121 -33z" />
    <glyph glyph-name="uni0442" unicode="&#x442;" horiz-adv-x="455" 
d="M129 0v19q36 5 47.5 14.5t11.5 37.5v311q0 25 -13 32t-48 7q-40 0 -56 -14.5t-32 -59.5h-19l12 104h392l11 -104h-19q-16 46 -31.5 60t-54.5 14q-36 0 -49 -7t-13 -32v-311q0 -28 11.5 -37.5t47.5 -14.5v-19h-198z" />
    <glyph glyph-name="uni0443" unicode="&#x443;" horiz-adv-x="523" 
d="M119 -198q-37 0 -58.5 17t-21.5 44q0 22 14.5 35.5t36.5 13.5q19 0 28 -11.5t10 -25.5t6.5 -25.5t19.5 -11.5q31 0 60 74q23 59 -4 131l-120 295q-19 48 -33.5 64t-46.5 28v21h199v-21q-41 -12 -46.5 -27.5t14.5 -64.5l89 -219q7 -15 12 -19.5t10.5 0.5t12.5 20l44 114
q25 63 36 99.5t6.5 56t-15 26.5t-36.5 14v21h177v-21q-43 -12 -61.5 -28.5t-36.5 -63.5l-168 -415q-26 -63 -51.5 -92t-76.5 -29z" />
    <glyph glyph-name="uni0444" unicode="&#x444;" horiz-adv-x="852" 
d="M322 -190v20q36 4 50 15.5t14 38.5v189q-64 -79 -158 -79q-84 0 -141 61.5t-57 162.5q0 112 64 177t154 65q25 0 50.5 -5.5t39.5 -11t26 -8.5t17 2.5t5 21.5v95q0 36 -12.5 49t-52.5 9v19l110 24q35 8 35 -28v-218q0 -8 5.5 -10t13.5 6q16 20 55 37.5t85 17.5
q84 0 140.5 -62t56.5 -163q0 -112 -63.5 -176.5t-152.5 -64.5q-27 0 -53 6.5t-40.5 13.5t-26 11t-16 -0.5t-4.5 -21.5v-119q0 -27 14 -38.5t51 -15.5v-20h-209zM273 49q44 0 78.5 24.5t34.5 78.5v142q0 67 -45 103t-102 36q-59 0 -93 -47.5t-34 -126.5q0 -91 44.5 -150.5
t116.5 -59.5zM612 21q60 0 94 47t34 126q0 90 -44 150.5t-112 60.5q-47 0 -82.5 -26t-35.5 -85v-126q0 -71 45 -109t101 -38z" />
    <glyph glyph-name="uni0445" unicode="&#x445;" horiz-adv-x="498" 
d="M15 0v21q46 12 72.5 31t68.5 73l63 83l-94 132q-31 43 -53 62t-53 28v21h200v-21q-27 -7 -34 -18t-0.5 -26t29.5 -46l53 -73q46 61 61.5 94t8 47t-36.5 22v21h181v-21q-46 -12 -72 -31t-68 -73l-60 -79l96 -135q30 -43 52 -62t54 -29v-21h-200v21q27 7 34 18t0.5 26.5
t-29.5 46.5l-55 75q-36 -47 -53.5 -76.5t-20.5 -48t6 -27t31 -14.5v-21h-181z" />
    <glyph glyph-name="uni0446" unicode="&#x446;" horiz-adv-x="604" 
d="M543 -110q0 77 -27 93.5t-147 16.5h-339v19q32 5 43 14.5t11 37.5v309q0 28 -11 37.5t-43 14.5v19h188v-19q-32 -5 -43 -14.5t-11 -37.5v-309q0 -26 10.5 -33.5t43.5 -7.5h151q21 0 30.5 1.5t16.5 9t7 22.5v317q0 28 -11 37.5t-43 14.5v19h189v-19q-33 -5 -44 -14.5
t-11 -37.5v-318q0 -16 7 -23t17 -8t36 -1h11q14 0 12 -12l-24 -128h-19z" />
    <glyph glyph-name="uni0447" unicode="&#x447;" horiz-adv-x="555" 
d="M525 429q-32 -5 -43 -14.5t-11 -36.5v-305q0 -27 11 -36.5t43 -14.5v-22h-190v22q32 5 43 14.5t11 36.5v106q0 16 -6 15q-3 0 -31 -25q-64 -55 -135 -55q-62 0 -102.5 41.5t-40.5 139.5v83q0 27 -11 36.5t-43 14.5v22h191v-22q-32 -5 -43 -14.5t-11 -36.5v-83
q0 -59 27.5 -97.5t76.5 -38.5q51 0 89.5 39t38.5 94v86q0 27 -11 36.5t-43 14.5v22h190v-22z" />
    <glyph glyph-name="uni0448" unicode="&#x448;" horiz-adv-x="740" 
d="M30 0v19q32 5 43 14.5t11 37.5v309q0 28 -11 37.5t-43 14.5v19h188v-19q-32 -5 -43 -14.5t-11 -37.5v-309q0 -26 10.5 -33.5t43.5 -7.5h58q33 0 43.5 7.5t10.5 33.5v309q0 28 -11 37.5t-43 14.5v19h188v-19q-32 -5 -43 -14.5t-11 -37.5v-309q0 -26 10.5 -33.5t43.5 -7.5
h58q33 0 43.5 7.5t10.5 33.5v309q0 28 -11 37.5t-43 14.5v19h188v-19q-32 -5 -43 -14.5t-11 -37.5v-309q0 -28 11 -37.5t43 -14.5v-19h-680z" />
    <glyph glyph-name="uni0449" unicode="&#x449;" horiz-adv-x="757" 
d="M727 30q13 0 12 -12l-24 -128h-19q0 77 -27 93.5t-147 16.5h-492v19q32 5 43 14.5t11 37.5v309q0 28 -11 37.5t-43 14.5v19h188v-19q-32 -5 -43 -14.5t-11 -37.5v-309q0 -26 10.5 -33.5t43.5 -7.5h58q33 0 43.5 7.5t10.5 33.5v309q0 28 -11 37.5t-43 14.5v19h188v-19
q-32 -5 -43 -14.5t-11 -37.5v-309q0 -26 10.5 -33.5t43.5 -7.5h58q33 0 43.5 7.5t10.5 33.5v309q0 28 -11 37.5t-43 14.5v19h188v-19q-32 -5 -43 -14.5t-11 -37.5v-309q0 -21 6 -32q9 -9 65 -9z" />
    <glyph glyph-name="uni044A" unicode="&#x44a;" horiz-adv-x="544" 
d="M305 320q97 0 155.5 -42.5t58.5 -118.5t-58.5 -117.5t-155.5 -41.5h-206v19q32 5 43 14.5t11 37.5v309v6q-1 19 -11 27t-34 8q-27 0 -44 -12t-30 -42h-19l13 84h259v-19q-32 -5 -43 -14.5t-11 -37.5v-40q0 -8 6 -14t14 -6h52zM304 29q67 0 97 36t30 94t-29.5 94.5
t-96.5 36.5h-52q-8 0 -14 -6t-6 -14v-199q0 -26 13.5 -34t57.5 -8z" />
    <glyph glyph-name="uni044B" unicode="&#x44b;" horiz-adv-x="698" 
d="M30 0v19q32 5 43 14.5t11 37.5v309q0 28 -11 37.5t-43 14.5v19h188v-19q-32 -5 -43 -14.5t-11 -37.5v-40q0 -8 6 -14t14 -6h52q97 0 155.5 -42.5t58.5 -118.5t-58.5 -117.5t-155.5 -41.5h-206zM479 0v19q32 5 43 14.5t11 37.5v309q0 28 -11 37.5t-43 14.5v19h189v-19
q-33 -5 -44 -14.5t-11 -37.5v-309q0 -28 11 -37.5t44 -14.5v-19h-189zM235 29q67 0 97.5 36.5t30.5 93.5q0 58 -30 94.5t-97 36.5h-52q-8 0 -14 -6t-6 -14v-199q0 -26 13.5 -34t57.5 -8z" />
    <glyph glyph-name="uni044C" unicode="&#x44c;" horiz-adv-x="471" 
d="M30 0v19q32 5 43 14.5t11 37.5v309q0 28 -11 37.5t-43 14.5v19h188v-19q-32 -5 -43 -14.5t-11 -37.5v-40q0 -8 6 -14t14 -6h52q97 0 155.5 -42.5t58.5 -118.5t-58.5 -117.5t-155.5 -41.5h-206zM235 29q67 0 97.5 36.5t30.5 93.5q0 58 -30 94.5t-97 36.5h-52q-8 0 -14 -6
t-6 -14v-199q0 -26 13.5 -34t57.5 -8z" />
    <glyph glyph-name="uni044D" unicode="&#x44d;" horiz-adv-x="487" 
d="M215 460q100 0 171 -63t71 -171q0 -106 -68.5 -169t-167.5 -63q-72 0 -121 33t-65 72l17 14q41 -64 122 -64q75 0 130 44.5t67 122.5h-153v26h156q1 6 1 18q0 81 -37.5 127t-101.5 46q-51 0 -76 -27.5t-29 -66.5q-3 -44 -43 -44q-21 0 -33.5 13.5t-12.5 34.5
q0 44 47.5 80.5t125.5 36.5z" />
    <glyph glyph-name="uni044E" unicode="&#x44e;" horiz-adv-x="749" 
d="M490 460q95 0 162 -63.5t67 -167.5q0 -105 -67.5 -170t-164.5 -65q-92 0 -158 60.5t-70 160.5h-95v-144q0 -28 11 -37.5t43 -14.5v-19h-188v19q32 5 43 14.5t11 37.5v309q0 28 -11 37.5t-43 14.5v19h188v-19q-32 -5 -43 -14.5t-11 -37.5v-142h95q4 100 70.5 161t160.5 61
zM513 22q54 0 86.5 43.5t32.5 126.5q0 99 -47 169.5t-120 70.5q-54 0 -87 -43t-33 -126q0 -100 47.5 -170.5t120.5 -70.5z" />
    <glyph glyph-name="uni044F" unicode="&#x44f;" horiz-adv-x="502" 
d="M472 432q-32 -5 -43 -14.5t-11 -37.5v-309q0 -28 11 -37.5t43 -14.5v-19h-188v19q32 5 43 14.5t11 37.5v127h-77q-38 0 -54 -17.5t-29 -65.5q-15 -58 -46.5 -86.5t-96.5 -28.5h-20v19q54 10 77 100q8 37 27 59t62 28q-59 8 -92.5 40t-33.5 77q0 57 43 92.5t119 35.5h255
v-19zM243 228h95v152q0 27 -10.5 34t-43.5 7h-46q-97 0 -97 -98q0 -95 102 -95z" />
    <glyph glyph-name="uni0450" unicode="&#x450;" horiz-adv-x="478" 
d="M287 532q-7 -10 -29 3l-117 71q-25 15 -30.5 34.5t6.5 29.5q27 29 62 -8l99 -105q15 -14 9 -25zM260 -6q-97 0 -163.5 64t-66.5 170q0 107 66.5 169.5t165.5 62.5q75 0 119.5 -36.5t44.5 -93.5q0 -49 -42 -70t-149 -26l-89 -4q-31 -1 -25 -42q10 -64 61 -102t120 -38
q81 0 125 57l16 -13q-19 -36 -66 -67t-117 -31zM148 255l73 1q71 2 97 17.5t26 55.5q0 45 -25 74.5t-75 29.5q-56 0 -88.5 -35.5t-39.5 -97.5q-3 -29 4.5 -37.5t27.5 -7.5z" />
    <glyph glyph-name="uni0451" unicode="&#x451;" horiz-adv-x="478" 
d="M149 568q-20 0 -35 15.5t-15 35.5t15 35t35 15t35 -15t15 -35t-15 -35.5t-35 -15.5zM333 568q-20 0 -35 15.5t-15 35.5t15 35t35 15t35 -15t15 -35t-15 -35.5t-35 -15.5zM260 -6q-97 0 -163.5 64t-66.5 170q0 107 66.5 169.5t165.5 62.5q75 0 119.5 -36.5t44.5 -93.5
q0 -49 -42 -70t-149 -26l-89 -4q-31 -1 -25 -42q10 -64 61 -102t120 -38q81 0 125 57l16 -13q-19 -36 -66 -67t-117 -31zM148 255l73 1q71 2 97 17.5t26 55.5q0 45 -25 74.5t-75 29.5q-56 0 -88.5 -35.5t-39.5 -97.5q-3 -29 4.5 -37.5t27.5 -7.5z" />
    <glyph glyph-name="uni0453" unicode="&#x453;" horiz-adv-x="437" 
d="M178 532q-6 11 8 25l99 105q35 38 63 8q12 -10 6.5 -29.5t-30.5 -34.5l-117 -71q-23 -12 -29 -3zM30 0v19q32 5 43 14.5t11 37.5v315q0 24 -12.5 33.5t-41.5 12.5v19h365l18 -105h-19q-17 44 -39.5 59.5t-78.5 15.5h-87q-25 0 -25 -26v-324q0 -28 11 -37.5t43 -14.5v-19
h-188z" />
    <glyph glyph-name="uni0454" unicode="&#x454;" horiz-adv-x="487" 
d="M435 113l17 -14q-16 -39 -65 -72t-121 -33q-99 0 -167.5 63t-68.5 169q0 108 71 171t172 63q77 0 124.5 -36.5t47.5 -80.5q0 -21 -12.5 -34.5t-32.5 -13.5q-40 0 -44 44q-4 39 -29 66.5t-76 27.5q-64 0 -101.5 -46t-37.5 -127q0 -12 1 -18h156v-26h-153q12 -78 67 -122.5
t130 -44.5q81 0 122 64z" />
    <glyph glyph-name="uni0455" unicode="&#x455;" horiz-adv-x="427" 
d="M205 -6q-72 0 -123.5 29.5t-51.5 83.5q0 23 11 35.5t29 12.5q17 0 27 -10.5t10 -23.5q0 -51 35 -77t83 -26q43 0 66.5 20t23.5 55q0 18 -8 33.5t-17 24t-30 18t-32 13.5t-37 12q-30 9 -52.5 19.5t-46 26.5t-36.5 39.5t-13 53.5q0 57 48 92t126 35q69 0 117.5 -27.5
t48.5 -73.5t-42 -46q-34 0 -34 35q0 39 -30 64t-75 25q-81 0 -81 -72q0 -41 25.5 -60.5t80.5 -37.5q34 -11 47 -15.5t42.5 -18t43 -26t25.5 -33.5t12 -47q0 -60 -54.5 -96.5t-137.5 -36.5z" />
    <glyph glyph-name="uni0456" unicode="&#x456;" 
d="M121 568q-20 0 -35 15.5t-15 35.5t15 35t35 15t35 -15t15 -35t-15 -35.5t-35 -15.5zM26 0v21q36 4 50 15t14 38v282q0 36 -12.5 49t-52.5 9v19l110 25q35 8 35 -29v-355q0 -27 14 -38t51 -15v-21h-209z" />
    <glyph glyph-name="uni0457" unicode="&#x457;" 
d="M27 568q-20 0 -35 15.5t-15 35.5t15 35t35 15t35 -15t15 -35t-15 -35.5t-35 -15.5zM211 568q-20 0 -35 15.5t-15 35.5t15 35t35 15t35 -15t15 -35t-15 -35.5t-35 -15.5zM26 0v21q36 4 50 15t14 38v282q0 36 -12.5 49t-52.5 9v19l110 25q35 8 35 -29v-355q0 -27 14 -38
t51 -15v-21h-209z" />
    <glyph glyph-name="uni0458" unicode="&#x458;" horiz-adv-x="229" 
d="M114 568q-20 0 -35 15.5t-15 35.5t15 35t35 15t35 -15t15 -35t-15 -35.5t-35 -15.5zM36 -200q-38 0 -66 16t-28 46q0 18 10.5 29t29.5 11q14 0 25 -11.5t17.5 -26t15.5 -26t20 -11.5q24 0 24 52v477q0 36 -12.5 49t-52.5 9v19l110 25q35 8 35 -29v-491q0 -65 -35 -101.5
t-93 -36.5z" />
    <glyph glyph-name="uni045E" unicode="&#x45e;" horiz-adv-x="523" 
d="M263 561q-61 0 -96 34t-35 85q0 11 8 11h11q8 0 10 -8q5 -26 32.5 -45.5t69.5 -19.5t69.5 19.5t33.5 45.5q2 8 10 8h11q8 0 8 -11q0 -51 -35.5 -85t-96.5 -34zM119 -198q-37 0 -58.5 17t-21.5 44q0 22 14.5 35.5t36.5 13.5q19 0 28 -11.5t10 -25.5t6.5 -25.5t19.5 -11.5
q31 0 60 74q23 59 -4 131l-120 295q-19 48 -33.5 64t-46.5 28v21h199v-21q-41 -12 -46.5 -27.5t14.5 -64.5l89 -219q7 -15 12 -19.5t10.5 0.5t12.5 20l44 114q25 63 36 99.5t6.5 56t-15 26.5t-36.5 14v21h177v-21q-43 -12 -61.5 -28.5t-36.5 -63.5l-168 -415
q-26 -63 -51.5 -92t-76.5 -29z" />
    <glyph glyph-name="uni0490" unicode="&#x490;" horiz-adv-x="519" 
d="M30 0v21q33 6 46.5 15.5t13.5 35.5v477q0 26 -13 35.5t-47 16.5v20h338q32 0 52.5 7t27.5 13.5t23 24.5h23l-21 -72h-231q-32 0 -46.5 -9.5t-14.5 -35.5v-477q0 -26 15 -35.5t56 -15.5v-21h-222z" />
    <glyph glyph-name="uni0491" unicode="&#x491;" horiz-adv-x="428" 
d="M30 0v19q32 5 43 14.5t11 37.5v315q0 24 -12.5 33.5t-41.5 12.5v19h246q56 0 78 11.5t35 42.5h19l-13 -84h-206q-25 0 -25 -26v-324q0 -28 11 -37.5t43 -14.5v-19h-188z" />
    <glyph glyph-name="uni04E8" unicode="&#x4e8;" horiz-adv-x="701" 
d="M357 637q135 0 224.5 -90t89.5 -227q0 -141 -94 -235.5t-233 -94.5q-135 0 -224.5 90t-89.5 228q0 140 94 234.5t233 94.5zM331 604q-82 0 -140.5 -63.5t-58.5 -195.5v-17h435q-11 123 -78 199.5t-158 76.5zM370 23q82 0 140.5 64t58.5 197v15h-435q12 -123 79 -199.5
t157 -76.5z" />
    <glyph glyph-name="uni04E9" unicode="&#x4e9;" horiz-adv-x="520" 
d="M262 460q95 0 161.5 -63.5t66.5 -167.5q0 -105 -67.5 -170t-163.5 -65q-95 0 -162 63.5t-67 168.5t67.5 169.5t164.5 64.5zM236 432q-54 0 -86.5 -43t-32.5 -126q0 -17 1 -25h283q-11 84 -56 139t-109 55zM284 22q54 0 87 43.5t33 126.5q0 15 -1 23h-283
q11 -83 55.5 -138t108.5 -55z" />
    <glyph glyph-name="Wgrave" unicode="&#x1e80;" horiz-adv-x="1015" 
d="M544 702q-6 -9 -29 3l-117 71q-25 15 -30.5 34.5t6.5 29.5q28 30 63 -8l99 -105q14 -14 8 -25zM310 0l-196 502q-21 55 -39 74t-55 24v21h220v-21q-44 -7 -51.5 -22t6.5 -45l155 -402q10 -24 20 0l98 254q19 51 -6 117q-22 56 -39.5 74.5t-54.5 23.5v21h219v-21
q-44 -7 -51.5 -22t7.5 -45l154 -402q10 -24 20 0l152 397q22 62 -63 72v21h189v-21q-36 -7 -55.5 -22t-33.5 -50l-174 -451q-19 -52 -19 -77h-56l-151 390l-121 -313q-20 -54 -20 -77h-55z" />
    <glyph glyph-name="wgrave" unicode="&#x1e81;" horiz-adv-x="754" 
d="M469 532q-7 -10 -29 3l-117 71q-26 15 -31.5 34.5t6.5 29.5q28 30 63 -8l99 -105q15 -14 9 -25zM223 0l-133 338q-18 47 -32.5 63.5t-47.5 28.5v21h197v-21q-41 -12 -46.5 -27.5t14.5 -64.5l83 -213q7 -17 12.5 -22.5t11 0t11.5 22.5l31 87q30 82 5 145
q-12 30 -27.5 45.5t-46.5 27.5v21h196v-21q-40 -12 -45.5 -27.5t13.5 -64.5l84 -213q7 -17 12.5 -22.5t11 0t11.5 22.5l38 109q24 66 33.5 101t6 55.5t-13.5 26.5t-36 13v21h178v-21q-44 -12 -61.5 -28.5t-36.5 -63.5l-133 -338h-46l-100 254l-99 -254h-45z" />
    <glyph glyph-name="Wacute" unicode="&#x1e82;" horiz-adv-x="1015" 
d="M477 702q-6 11 8 25l99 105q35 38 63 8q12 -10 6.5 -29.5t-30.5 -34.5l-117 -71q-23 -12 -29 -3zM310 0l-196 502q-21 55 -39 74t-55 24v21h220v-21q-44 -7 -51.5 -22t6.5 -45l155 -402q10 -24 20 0l98 254q19 51 -6 117q-22 56 -39.5 74.5t-54.5 23.5v21h219v-21
q-44 -7 -51.5 -22t7.5 -45l154 -402q10 -24 20 0l152 397q22 62 -63 72v21h189v-21q-36 -7 -55.5 -22t-33.5 -50l-174 -451q-19 -52 -19 -77h-56l-151 390l-121 -313q-20 -54 -20 -77h-55z" />
    <glyph glyph-name="wacute" unicode="&#x1e83;" horiz-adv-x="754" 
d="M356 532q-6 11 9 25l99 105q35 37 62 8q12 -10 6.5 -29.5t-30.5 -34.5l-117 -71q-22 -13 -29 -3zM223 0l-133 338q-18 47 -32.5 63.5t-47.5 28.5v21h197v-21q-41 -12 -46.5 -27.5t14.5 -64.5l83 -213q7 -17 12.5 -22.5t11 0t11.5 22.5l31 87q30 82 5 145
q-12 30 -27.5 45.5t-46.5 27.5v21h196v-21q-40 -12 -45.5 -27.5t13.5 -64.5l84 -213q7 -17 12.5 -22.5t11 0t11.5 22.5l38 109q24 66 33.5 101t6 55.5t-13.5 26.5t-36 13v21h178v-21q-44 -12 -61.5 -28.5t-36.5 -63.5l-133 -338h-46l-100 254l-99 -254h-45z" />
    <glyph glyph-name="Wdieresis" unicode="&#x1e84;" horiz-adv-x="1015" 
d="M413 738q-20 0 -35 15.5t-15 35.5t15 35t35 15t35 -15t15 -35t-15 -35.5t-35 -15.5zM597 738q-20 0 -35 15.5t-15 35.5t15 35t35 15t35 -15t15 -35t-15 -35.5t-35 -15.5zM310 0l-196 502q-21 55 -39 74t-55 24v21h220v-21q-44 -7 -51.5 -22t6.5 -45l155 -402q10 -24 20 0
l98 254q19 51 -6 117q-22 56 -39.5 74.5t-54.5 23.5v21h219v-21q-44 -7 -51.5 -22t7.5 -45l154 -402q10 -24 20 0l152 397q22 62 -63 72v21h189v-21q-36 -7 -55.5 -22t-33.5 -50l-174 -451q-19 -52 -19 -77h-56l-151 390l-121 -313q-20 -54 -20 -77h-55z" />
    <glyph glyph-name="wdieresis" unicode="&#x1e85;" horiz-adv-x="754" 
d="M282 568q-20 0 -35 15.5t-15 35.5t15 35t35 15t35 -15t15 -35t-15 -35.5t-35 -15.5zM465 568q-19 0 -34 15.5t-15 35.5t14.5 35t34.5 15t35 -15t15 -35t-15 -35.5t-35 -15.5zM223 0l-133 338q-18 47 -32.5 63.5t-47.5 28.5v21h197v-21q-41 -12 -46.5 -27.5t14.5 -64.5
l83 -213q7 -17 12.5 -22.5t11 0t11.5 22.5l31 87q30 82 5 145q-12 30 -27.5 45.5t-46.5 27.5v21h196v-21q-40 -12 -45.5 -27.5t13.5 -64.5l84 -213q7 -17 12.5 -22.5t11 0t11.5 22.5l38 109q24 66 33.5 101t6 55.5t-13.5 26.5t-36 13v21h178v-21q-44 -12 -61.5 -28.5
t-36.5 -63.5l-133 -338h-46l-100 254l-99 -254h-45z" />
    <glyph glyph-name="uni1EBC" unicode="&#x1ebc;" horiz-adv-x="562" 
d="M361 720q-43 0 -105.5 31.5t-81.5 31.5q-17 0 -29.5 -12t-12.5 -34h-22q0 50 27.5 77.5t68.5 27.5q42 0 104.5 -31.5t82.5 -31.5q17 0 29.5 12.5t12.5 33.5h22q0 -50 -27.5 -77.5t-68.5 -27.5zM30 0v21q33 6 46.5 15.5t13.5 35.5v477q0 26 -13.5 35.5t-46.5 15.5v21h454
q14 0 15 -12q6 -52 20 -109h-19q-19 47 -49 70t-80 23h-128q-32 0 -47 -10t-15 -37v-171q0 -27 14.5 -36t47.5 -9h99q43 0 59 16.5t23 55.5h16v-173h-16q-7 38 -23 55.5t-59 17.5h-99q-32 0 -47 -9.5t-15 -35.5v-181q0 -28 19.5 -38t74.5 -9l115 1q50 1 72.5 14.5t37.5 39.5
l24 37h20q-22 -40 -30 -107q-2 -14 -16 -14h-468z" />
    <glyph glyph-name="uni1EBD" unicode="&#x1ebd;" horiz-adv-x="478" 
d="M319 550q-43 0 -105.5 31.5t-81.5 31.5q-17 0 -29.5 -12t-12.5 -34h-22q0 50 27.5 77.5t68.5 27.5q42 0 104.5 -31.5t82.5 -31.5q17 0 29.5 12.5t12.5 33.5h22q0 -50 -27.5 -77.5t-68.5 -27.5zM260 -6q-97 0 -163.5 64t-66.5 170q0 107 66.5 169.5t165.5 62.5
q75 0 119.5 -36.5t44.5 -93.5q0 -49 -42 -70t-149 -26l-89 -4q-31 -1 -25 -42q10 -64 61 -102t120 -38q81 0 125 57l16 -13q-19 -36 -66 -67t-117 -31zM148 255l73 1q71 2 97 17.5t26 55.5q0 45 -25 74.5t-75 29.5q-56 0 -88.5 -35.5t-39.5 -97.5q-3 -29 4.5 -37.5
t27.5 -7.5z" />
    <glyph glyph-name="Ygrave" unicode="&#x1ef2;" horiz-adv-x="636" 
d="M353 702q-7 -10 -29 3l-117 71q-25 15 -30.5 34.5t6.5 29.5q27 29 62 -8l99 -105q15 -14 9 -25zM193 0v21q47 6 63.5 15t16.5 36v170q0 23 -21 57l-131 207q-30 47 -52.5 66t-53.5 28v21h222v-21q-39 -8 -44.5 -24t15.5 -47l130 -206q7 -9 14 0l123 202q19 27 14.5 43
t-17 22.5t-35.5 9.5v21h184v-21q-36 -4 -58.5 -21t-51.5 -63l-133 -213q-14 -23 -14 -61v-170q0 -27 16.5 -36t63.5 -15v-21h-251z" />
    <glyph glyph-name="ygrave" unicode="&#x1ef3;" horiz-adv-x="523" 
d="M303 532q-7 -10 -29 3l-117 71q-26 15 -31.5 34.5t6.5 29.5q28 30 63 -8l99 -105q15 -14 9 -25zM119 -198q-37 0 -58.5 17t-21.5 44q0 22 14.5 35.5t36.5 13.5q19 0 28 -11.5t10 -25.5t6.5 -25.5t19.5 -11.5q31 0 60 74q23 59 -4 131l-120 295q-19 48 -33.5 64t-46.5 28
v21h199v-21q-41 -12 -46.5 -27.5t14.5 -64.5l89 -219q7 -15 12 -19.5t10.5 0.5t12.5 20l44 114q25 63 36 99.5t6.5 56t-15 26.5t-36.5 14v21h177v-21q-43 -12 -61.5 -28.5t-36.5 -63.5l-168 -415q-26 -63 -51.5 -92t-76.5 -29z" />
    <glyph glyph-name="endash" unicode="&#x2013;" horiz-adv-x="682" 
d="M50 249v26h582v-26h-582z" />
    <glyph glyph-name="emdash" unicode="&#x2014;" horiz-adv-x="919" 
d="M50 249v26h819v-26h-819z" />
    <glyph glyph-name="uni2015" unicode="&#x2015;" horiz-adv-x="919" 
d="M50 249v26h819v-26h-819z" />
    <glyph glyph-name="quoteleft" unicode="&#x2018;" horiz-adv-x="175" 
d="M102 638l12 -14q-15 -12 -25 -31t-10 -31q0 -17 15 -17q22 0 36.5 -14.5t14.5 -37.5q0 -24 -16 -38.5t-39 -14.5q-29 0 -44.5 21t-15.5 52q0 35 20 69.5t52 55.5z" />
    <glyph glyph-name="quoteright" unicode="&#x2019;" horiz-adv-x="175" 
d="M74 438l-13 15q15 12 25.5 30.5t10.5 30.5q0 18 -16 18q-22 0 -36.5 14.5t-14.5 37.5q0 24 16.5 38.5t39.5 14.5q29 0 44 -21t15 -52q0 -36 -19.5 -70t-51.5 -56z" />
    <glyph glyph-name="quotesinglbase" unicode="&#x201a;" horiz-adv-x="175" 
d="M74 -95l-13 14q15 13 25.5 31.5t10.5 30.5q0 17 -16 17q-22 0 -36.5 15t-14.5 37q0 24 16.5 39t39.5 15q29 0 44 -21t15 -53q0 -35 -19.5 -69.5t-51.5 -55.5z" />
    <glyph glyph-name="quotedblleft" unicode="&#x201c;" horiz-adv-x="326" 
d="M102 637l12 -14q-15 -13 -25 -31.5t-10 -30.5q0 -17 15 -17q22 0 36.5 -15t14.5 -37q0 -24 -16 -39t-39 -15q-29 0 -44.5 21.5t-15.5 52.5q0 35 20 69.5t52 55.5zM253 637l12 -14q-15 -13 -25.5 -32t-10.5 -30q0 -17 16 -17q22 0 36.5 -15t14.5 -37q0 -24 -16 -39
t-39 -15q-29 0 -44.5 21.5t-15.5 52.5q0 36 19.5 70t52.5 55z" />
    <glyph glyph-name="quotedblright" unicode="&#x201d;" horiz-adv-x="326" 
d="M74 438l-13 15q15 12 25.5 30.5t10.5 30.5q0 18 -16 18q-22 0 -36.5 14.5t-14.5 37.5q0 24 16.5 38.5t39.5 14.5q29 0 44 -21t15 -52q0 -36 -19.5 -70t-51.5 -56zM224 438l-12 15q15 12 25.5 30.5t10.5 30.5q0 18 -16 18q-22 0 -36.5 14.5t-14.5 37.5q0 24 16 38.5
t39 14.5q29 0 44.5 -21t15.5 -52q0 -36 -19.5 -70t-52.5 -56z" />
    <glyph glyph-name="quotedblbase" unicode="&#x201e;" horiz-adv-x="323" 
d="M74 -95l-13 14q15 13 25.5 31.5t10.5 30.5q0 17 -16 17q-22 0 -36.5 15t-14.5 37q0 24 16.5 39t39.5 15q29 0 44 -21t15 -53q0 -35 -19.5 -69.5t-51.5 -55.5zM222 -95l-13 14q15 13 25.5 31.5t10.5 30.5q0 17 -16 17q-22 0 -36.5 15t-14.5 37q0 24 16.5 39t39.5 15
q29 0 44 -21t15 -53q0 -35 -19.5 -69.5t-51.5 -55.5z" />
    <glyph glyph-name="dagger" unicode="&#x2020;" horiz-adv-x="472" 
d="M229 135l-63 208l50 50l2 42q-32 0 -67 -19.5t-46 -19.5q-22 0 -38.5 16.5t-16.5 38.5t16.5 39t38.5 17q10 0 46.5 -20t68.5 -19q2 30 -18.5 65.5t-20.5 46.5q0 22 16.5 39t38.5 17t38.5 -17t16.5 -39q0 -11 -20.5 -46.5t-18.5 -65.5q32 -1 68.5 19t46.5 20
q22 0 38.5 -17t16.5 -39t-16.5 -38.5t-38.5 -16.5q-11 0 -46.5 19.5t-66.5 19.5l2 -42l50 -50l-63 -208h-14z" />
    <glyph glyph-name="daggerdbl" unicode="&#x2021;" horiz-adv-x="472" 
d="M236 -34q-22 0 -38.5 17t-16.5 39q0 11 21 48t20 67q-32 1 -69.5 -20t-47.5 -21q-22 0 -38.5 16.5t-16.5 38.5t16.5 39t38.5 17q10 0 47.5 -21t69.5 -20v38l-55 98l55 96v39q-32 1 -69.5 -20t-47.5 -21q-22 0 -38.5 16.5t-16.5 38.5t16.5 39t38.5 17q10 0 47.5 -21
t69.5 -20q1 30 -20 66.5t-21 47.5q0 22 16.5 39t38.5 17t38.5 -17t16.5 -39q0 -11 -21 -47.5t-20 -66.5q32 -1 69.5 20t47.5 21q22 0 38.5 -17t16.5 -39t-16.5 -38.5t-38.5 -16.5q-10 0 -47.5 21t-69.5 20v-39l54 -97l-54 -97v-38q32 -1 69.5 20t47.5 21q22 0 38.5 -17
t16.5 -39t-16.5 -38.5t-38.5 -16.5q-10 0 -47.5 21t-69.5 20q-1 -30 20 -67t21 -48q0 -22 -16.5 -39t-38.5 -17z" />
    <glyph glyph-name="bullet" unicode="&#x2022;" horiz-adv-x="289" 
d="M144 209q-34 0 -59 24.5t-25 59.5t25 60t59 25t59.5 -25t25.5 -60q0 -34 -25 -59t-60 -25z" />
    <glyph glyph-name="ellipsis" unicode="&#x2026;" horiz-adv-x="529" 
d="M94 -6q-22 0 -38 16.5t-16 38.5t16 38.5t38 16.5t38.5 -16t16.5 -39t-16.5 -39t-38.5 -16zM264 -6q-22 0 -38 16.5t-16 38.5t16 38.5t38 16.5t38.5 -16t16.5 -39t-16.5 -39t-38.5 -16zM434 -6q-22 0 -38 16.5t-16 38.5t16 38.5t38 16.5t38.5 -16t16.5 -39t-16.5 -39
t-38.5 -16z" />
    <glyph glyph-name="perthousand" unicode="&#x2030;" horiz-adv-x="925" 
d="M510 621h32l-404 -621h-77l432 597q-33 -26 -73 -31.5t-64.5 0.5t-69.5 20q20 -31 20 -71q0 -63 -47 -111t-107 -48q-48 0 -75 33t-27 80q0 63 47 111t107 48q46 0 91 -11.5t70.5 -20.5t63 -5t81.5 30zM173 380q33 0 49.5 35t16.5 88q0 100 -56 100q-33 0 -49.5 -35
t-16.5 -88q0 -100 56 -100zM482 262q48 0 75 -33t27 -81q0 -63 -47 -111t-107 -48q-48 0 -75 33t-27 80q0 63 47 111.5t107 48.5zM773 262q48 0 75 -33t27 -81q0 -63 -47 -111t-107 -48q-48 0 -75 33t-27 80q0 63 47 111.5t107 48.5zM451 14q33 0 49.5 35t16.5 88
q0 100 -56 100q-33 0 -49.5 -35t-16.5 -88q0 -100 56 -100zM742 14q33 0 49.5 35t16.5 88q0 100 -56 100q-33 0 -49.5 -35t-16.5 -88q0 -100 56 -100z" />
    <glyph glyph-name="guilsinglleft" unicode="&#x2039;" horiz-adv-x="252" 
d="M50 297l138 121l14 -11l-78 -110l78 -111l-14 -11z" />
    <glyph glyph-name="guilsinglright" unicode="&#x203a;" horiz-adv-x="252" 
d="M202 297l-139 -122l-13 11l78 111l-78 110l13 11z" />
    <glyph glyph-name="fraction" unicode="&#x2044;" horiz-adv-x="164" 
d="M-155 -5l440 641h44l-439 -641h-45z" />
    <glyph glyph-name="Euro" unicode="&#x20ac;" horiz-adv-x="699" 
d="M650 139l14 -12q-27 -49 -91.5 -93t-160.5 -44q-116 0 -206.5 71t-110.5 192h-65v19h62q-2 26 -2 41q0 13 1 20h-61v20h62q14 130 108.5 207t219.5 77q105 0 171 -50t66 -109q0 -27 -15.5 -44.5t-41.5 -17.5q-50 0 -55 62q-4 50 -43 88.5t-115 38.5q-93 0 -149.5 -65.5
t-56.5 -178.5v-8h255v-20h-254q3 -36 10 -61h244v-19h-239q29 -93 103 -147t170 -54q102 0 180 87z" />
    <glyph glyph-name="trademark" unicode="&#x2122;" horiz-adv-x="594" 
d="M38 621h218l8 -61h-16q-13 29 -27 35q-8 3 -18 3q-28 0 -28 -26v-125q0 -20 8.5 -27.5t27.5 -9.5v-16h-127v16q19 2 27.5 9.5t8.5 27.5v125q0 26 -28 26q-14 0 -24 -7t-13 -12.5t-9 -18.5h-16zM564 605q-17 -2 -21.5 -10.5t-4.5 -30.5v-113q0 -22 4.5 -30.5t21.5 -10.5
v-16h-108v16q16 2 21.5 10.5t5.5 30.5v105l-66 -138h-14l-66 128v-95q0 -21 5.5 -30t21.5 -11v-16h-79v16q17 2 22 10.5t5 30.5v113q0 22 -5.5 30.5t-21.5 10.5v16h72l69 -132l63 132h75v-16z" />
    <glyph glyph-name="oneeighth" unicode="&#x215b;" horiz-adv-x="607" 
d="M19 -5l440 641h44l-439 -641h-45zM32 379v14l6 3q7 2 8.5 2.5t6.5 3.5t6.5 6t3.5 8t2 11v154h-35v16l63 31q21 11 21 -15v-186q0 -5 1 -9.5t3 -7.5t4 -5t5.5 -4.5t5 -3t6 -2.5t5.5 -2v-14h-112zM468 -5q-42 0 -69 20.5t-27 53.5q0 49 48 61q-34 16 -34 56q0 29 23 48.5
t63 19.5q38 0 60.5 -18.5t22.5 -46.5q0 -34 -32 -50q49 -22 49 -66q0 -34 -29.5 -56t-74.5 -22zM475 150q16 -5 26.5 8t10.5 33q0 43 -40 43q-37 0 -37 -40q0 -33 40 -44zM470 16q46 0 46 48q0 43 -43 52l-10 2q-19 4 -32.5 -9.5t-13.5 -37.5q0 -23 13.5 -39t39.5 -16z" />
    <glyph glyph-name="threeeighths" unicode="&#x215c;" horiz-adv-x="728" 
d="M138 -5l440 641h44l-438 -641h-46zM132 374q-43 0 -70 21.5t-27 53.5q0 28 24 28q14 0 19 -6t6.5 -19.5t2.5 -17.5q14 -39 48 -39q22 0 35 16.5t13 44.5q0 35 -23.5 44t-48.5 -6l-9 18l16 6q49 18 49 52q0 42 -36 42q-27 0 -35 -22.5t-1 -43.5q-23 -10 -35.5 -2t-12.5 26
q0 26 23.5 44.5t63.5 18.5q39 0 62 -17.5t23 -42.5q0 -37 -48 -53q32 -1 49.5 -19t17.5 -44q0 -36 -30.5 -59.5t-75.5 -23.5zM584 -5q-42 0 -69 20.5t-27 53.5q0 49 48 61q-34 16 -34 56q0 29 23 48.5t63 19.5q38 0 60.5 -18.5t22.5 -46.5q0 -34 -32 -50q49 -22 49 -66
q0 -34 -29.5 -56t-74.5 -22zM591 150q16 -5 26.5 8t10.5 33q0 43 -40 43q-36 0 -36 -40q0 -33 39 -44zM586 16q46 0 46 48q0 43 -43 52l-10 2q-19 4 -32.5 -9.5t-13.5 -37.5q0 -23 13.5 -39t39.5 -16z" />
    <glyph glyph-name="fiveeighths" unicode="&#x215d;" horiz-adv-x="711" 
d="M126 -5l440 641h44l-439 -641h-45zM132 368q-43 0 -70 21.5t-27 53.5q0 26 24 26q14 0 19 -5.5t6.5 -18.5t2.5 -17q14 -39 48 -39q22 0 35 16.5t13 44.5q0 30 -15.5 48.5t-40.5 18.5t-49 -20h-29l10 124h142l18 5l-10 -48h-122l-4 -58q17 24 61 24q36 0 65 -23t29 -63
q0 -41 -30 -65.5t-76 -24.5zM572 -5q-42 0 -69 20.5t-27 53.5q0 49 48 61q-34 16 -34 56q0 29 23 48.5t63 19.5q38 0 60.5 -18.5t22.5 -46.5q0 -34 -32 -50q49 -22 49 -66q0 -34 -29.5 -56t-74.5 -22zM579 150q16 -5 26.5 8t10.5 33q0 43 -40 43q-37 0 -37 -40q0 -33 40 -44
zM574 16q46 0 46 48q0 43 -43 52l-10 2q-19 4 -32.5 -9.5t-13.5 -37.5q0 -23 13.5 -39t39.5 -16z" />
    <glyph glyph-name="seveneighths" unicode="&#x215e;" horiz-adv-x="676" 
d="M101 -5l440 641h44l-439 -641h-45zM66 379l125 199h-129l-27 -17l16 60h184l-115 -242h-54zM547 -5q-42 0 -69 20.5t-27 53.5q0 49 48 61q-34 16 -34 56q0 29 23 48.5t63 19.5q38 0 60.5 -18.5t22.5 -46.5q0 -34 -32 -50q49 -22 49 -66q0 -34 -29.5 -56t-74.5 -22z
M554 150q16 -5 26.5 8t10.5 33q0 43 -40 43q-37 0 -37 -40q0 -33 40 -44zM549 16q46 0 46 48q0 43 -43 52l-10 2q-19 4 -32.5 -9.5t-13.5 -37.5q0 -23 13.5 -39t39.5 -16z" />
    <glyph glyph-name="partialdiff" unicode="&#x2202;" horiz-adv-x="519" 
d="M259 -10q-102 0 -163 62.5t-61 150.5q0 83 55.5 139t137.5 56q61 0 110.5 -30.5t61.5 -59.5q0 52 -10 101t-31 95t-61.5 74t-94.5 28q-37 0 -77 -21l-12 19q38 33 110 33q69 0 121.5 -30t83 -81t45.5 -111t15 -126q0 -60 -12 -111.5t-37.5 -94.5t-72 -68t-108.5 -25z
M251 16q67 0 107.5 57t40.5 129q0 69 -41.5 113t-100.5 44q-61 0 -96.5 -47.5t-35.5 -121.5q0 -69 31.5 -121.5t94.5 -52.5z" />
    <glyph glyph-name="emptyset" unicode="&#x2205;" horiz-adv-x="530" 
d="M424 400q71 -64 71 -171q0 -105 -67.5 -170t-163.5 -65q-78 0 -139 45l-29 -35l-14 11l29 35q-76 66 -76 176q0 105 67.5 169.5t164.5 64.5q82 0 144 -48l32 39l14 -11zM122 263q0 -89 37 -155l206 249q-49 75 -124 75q-54 0 -86.5 -43t-32.5 -126zM289 22q54 0 87 43.5
t33 126.5q0 85 -34 148l-206 -248q47 -70 120 -70z" />
    <glyph glyph-name="product" unicode="&#x220f;" horiz-adv-x="558" 
d="M50 -200v1000h458v-1000h-27v974h-404v-974h-27z" />
    <glyph glyph-name="summation" unicode="&#x2211;" horiz-adv-x="530" 
d="M480 800v-26h-395l316 -475l-316 -473h395v-26h-430v26l316 474l-316 474v26h430z" />
    <glyph glyph-name="minus" unicode="&#x2212;" horiz-adv-x="470" 
d="M50 238v27h370v-27h-370z" />
    <glyph glyph-name="radical" unicode="&#x221a;" horiz-adv-x="703" 
d="M248 -200l-139 332q-19 44 -36.5 64.5t-52.5 33.5v21l120 -2l137 -334l310 885h96v-21q-44 -12 -62.5 -32t-35.5 -65l-315 -882h-22z" />
    <glyph glyph-name="infinity" unicode="&#x221e;" horiz-adv-x="687" 
d="M207 67q-68 0 -112.5 53t-44.5 146q0 89 40.5 139t101.5 50q81 0 141 -92q54 92 147 92q69 0 113 -53t44 -146q0 -89 -40.5 -139t-101.5 -50q-81 0 -140 93q-56 -93 -148 -93zM179 152q81 0 114 92l29 79q-48 65 -126 65q-47 0 -82.5 -28.5t-35.5 -91.5q0 -60 29.5 -88
t71.5 -28zM491 135q47 0 82.5 28.5t35.5 91.5q0 60 -29.5 88t-71.5 28q-35 0 -66 -22.5t-48 -69.5l-28 -80q47 -64 125 -64z" />
    <glyph glyph-name="integral" unicode="&#x222b;" horiz-adv-x="412" 
d="M38 -215q-59 0 -93.5 27t-34.5 62q0 21 13 30.5t30 9.5q20 0 30.5 -16.5t13 -36.5t16 -36.5t40.5 -16.5q43 0 58 35t15 109v538q0 88 47 135t120 47q60 0 94.5 -27t34.5 -62q0 -20 -13 -29.5t-30 -9.5q-20 0 -30.5 16.5t-13.5 36t-16.5 36t-40.5 16.5q-43 0 -57.5 -35
t-14.5 -109v-537q0 -88 -47 -135.5t-121 -47.5z" />
    <glyph glyph-name="approxequal" unicode="&#x2248;" horiz-adv-x="519" 
d="M353 270q-52 0 -127 35.5t-98 35.5q-22 0 -37 -13.5t-15 -38.5h-26q0 57 33 88t83 31q51 0 126 -35.5t99 -35.5q22 0 37 13.5t15 38.5h26q0 -57 -33 -88t-83 -31zM353 100q-52 0 -127 35.5t-98 35.5q-22 0 -37 -13.5t-15 -38.5h-26q0 57 33 88t83 31q51 0 126 -35.5
t99 -35.5q22 0 37 13.5t15 38.5h26q0 -57 -33 -88t-83 -31z" />
    <glyph glyph-name="notequal" unicode="&#x2260;" horiz-adv-x="470" 
d="M420 328h-130l-64 -153h194v-27h-205l-62 -149h-29l62 149h-136v27h147l64 153h-211v27h223l58 140h29l-58 -140h118v-27z" />
    <glyph glyph-name="lessequal" unicode="&#x2264;" horiz-adv-x="469" 
d="M419 118l-369 176v34l369 175v-33l-331 -159l331 -160v-33zM419 0h-370v27h370v-27z" />
    <glyph glyph-name="greaterequal" unicode="&#x2265;" horiz-adv-x="469" 
d="M50 118v33l331 160l-331 159v33l369 -175v-34zM50 0v27h370v-27h-370z" />
    <glyph glyph-name="lozenge" unicode="&#x25ca;" horiz-adv-x="412" 
d="M177 0l-142 310l142 311h58l142 -311l-142 -310h-58zM206 37l120 273l-120 273l-120 -273z" />
    <glyph glyph-name="i.loclTRK" 
d="M121 568q-20 0 -35 15.5t-15 35.5t15 35t35 15t35 -15t15 -35t-15 -35.5t-35 -15.5zM26 0v21q36 4 50 15t14 38v282q0 36 -12.5 49t-52.5 9v19l110 25q35 8 35 -29v-355q0 -27 14 -38t51 -15v-21h-209z" />
    <glyph glyph-name="e.001" horiz-adv-x="478" 
d="M260 -6q-97 0 -163.5 64t-66.5 170q0 107 68 169.5t167 62.5q78 0 125.5 -39t47.5 -98q0 -51 -42.5 -71t-147.5 -23l-102 -3q-18 -1 -23 -10t-2 -30q10 -64 61 -101t120 -37q80 0 124 57l17 -13q-19 -35 -66.5 -66.5t-116.5 -31.5zM148 250l86 1q68 1 95 19.5t27 59.5
q0 46 -27 74.5t-79 28.5q-59 0 -93.5 -35.5t-40.5 -97.5q-3 -31 4.5 -40.5t27.5 -9.5z" />
    <glyph glyph-name="f.001" horiz-adv-x="365" 
d="M20 0v21q39 4 54 15t15 38v329q0 21 -22 21h-47v19q38 4 53.5 12t15.5 27v6q0 93 46.5 143.5t121.5 50.5q56 0 87 -27t31 -66q0 -22 -12 -32.5t-29 -10.5q-20 0 -30 17.5t-12 39t-15.5 39t-40.5 17.5q-41 0 -54 -40t-13 -134v-8q0 -26 20 -26h109v-27h-109q-20 0 -20 -21
v-329q0 -27 15 -38t56 -15v-21h-220z" />
    <glyph glyph-name="s.ss01" horiz-adv-x="427" 
d="M205 -6q-72 0 -123.5 29.5t-51.5 83.5q0 23 11 35.5t29 12.5q17 0 27 -10.5t10 -23.5q0 -51 35 -77t83 -26q43 0 66.5 20t23.5 55q0 18 -8 33.5t-17 24t-30 18t-32 13.5t-37 12q-30 9 -52.5 19.5t-46 26.5t-36.5 39.5t-13 53.5q0 57 48 92t126 35q69 0 117.5 -27.5
t48.5 -73.5t-42 -46q-34 0 -34 35q0 39 -30 64t-75 25q-81 0 -81 -72q0 -41 25.5 -60.5t80.5 -37.5q34 -11 47 -15.5t42.5 -18t43 -26t25.5 -33.5t12 -47q0 -60 -54.5 -96.5t-137.5 -36.5z" />
    <glyph glyph-name="f_b" horiz-adv-x="864" 
d="M411 -6q-13 0 -13 14v454q0 91 -35.5 140.5t-103.5 49.5q-52 0 -67.5 -31t-15.5 -106v-38q0 -19 10 -25t42 -6h69v-34l-69 2q-32 1 -42 -5.5t-10 -25.5v-309q0 -27 18 -38t71 -15v-21h-240v21q41 4 56 15t15 38v311q0 17 -5.5 23t-16.5 6h-54v22q42 7 59 17t17 33v14
q0 88 54.5 135t139.5 47q84 0 136 -45.5t52 -145.5v-82q0 -8 5 -10t13 6q17 20 56 37.5t85 17.5q84 0 140.5 -62t56.5 -163q0 -111 -64 -176t-152 -65q-36 0 -69.5 12t-55.5 24.5t-31 12.5q-14 0 -28 -24.5t-23 -24.5zM623 20q60 0 95.5 47.5t35.5 126.5q0 90 -45 150.5
t-115 60.5q-47 0 -81.5 -28t-34.5 -95v-103q0 -78 44.5 -118.5t100.5 -40.5z" />
    <glyph glyph-name="f_h" horiz-adv-x="861" 
d="M775 -6q-63 0 -63 71v206q0 63 -30 101t-84 38t-87 -38.5t-33 -100.5v-197q0 -27 14 -38t50 -15v-21h-208v21q36 4 50 15t14 38v388q0 91 -35.5 140.5t-103.5 49.5q-52 0 -67.5 -31t-15.5 -106v-38q0 -19 10 -25t42 -6h69v-34l-69 2q-32 1 -42 -5.5t-10 -25.5v-309
q0 -27 18 -38t71 -15v-21h-240v21q41 4 56 15t15 38v311q0 17 -5.5 23t-16.5 6h-54v22q42 7 59 17t17 33v14q0 88 54.5 135t139.5 47q84 0 136 -45.5t52 -145.5v-63q0 -47 15 -42q4 1 8 5l7 7l9.5 9.5t12.5 11t16.5 12.5t19 11t23 9.5t26 6t30.5 2.5q63 0 105 -41t42 -125
v-227q0 -43 51 -34v-12q-20 -27 -68 -27z" />
    <glyph glyph-name="f_j" horiz-adv-x="557" 
d="M25 0v21q41 4 56 15t15 38v311q0 17 -5.5 23t-16.5 6h-54v22q42 7 59 17t17 33q0 97 47 146.5t130 49.5q59 0 94.5 -22t35.5 -56q0 -37 -39 -37q-19 0 -34.5 13.5t-25.5 29t-29 29t-45 13.5q-34 0 -44 -24t-10 -81v-70q0 -19 10 -25t42 -6h69v-34l-69 2q-32 1 -42 -5.5
t-10 -25.5v-309q0 -27 18 -38t71 -15v-21h-240zM365 -200q-39 0 -66.5 16t-27.5 46q0 40 39 40q14 0 25 -11.5t17.5 -26t15.5 -26t20 -11.5q24 0 24 52v477q0 36 -12.5 49t-52.5 9v19l110 25q35 8 35 -29v-491q0 -64 -34.5 -101t-92.5 -37z" />
    <glyph glyph-name="f_k" horiz-adv-x="826" 
d="M25 0v21q41 4 56 15t15 38v311q0 17 -5.5 23t-16.5 6h-54v22q42 7 59 17t17 33v14q0 88 54.5 135t139.5 47q84 0 136 -45.5t52 -145.5v-228q0 -14 7 -18.5t17 3.5l156 142q25 22 -10 34q-12 4 -30 6v21h166v-21q-10 -1 -17.5 -2.5t-15 -4.5t-11.5 -4.5t-11 -7t-9 -6.5
t-11 -9t-11 -10l-111 -98l159 -220q21 -29 34.5 -36t45.5 -11v-21h-187v21q28 4 31.5 11.5t-11.5 28.5l-118 166q-9 11 -26 -3q-37 -31 -37 -61v-89q0 -27 14 -38t50 -15v-21h-208v21q36 4 50 15t14 38v388q0 91 -35.5 140.5t-103.5 49.5q-52 0 -67.5 -31t-15.5 -106v-38
q0 -19 10 -25t42 -6h69v-34l-69 2q-32 1 -42 -5.5t-10 -25.5v-309q0 -27 18 -38t71 -15v-21h-240z" />
    <glyph glyph-name="zero.osf" horiz-adv-x="520" 
d="M259 -6q-95 0 -162 63.5t-67 168.5t67.5 169.5t164.5 64.5q95 0 161.5 -63.5t66.5 -167.5q0 -105 -67.5 -170t-163.5 -65zM284 22q54 0 87 43.5t33 126.5q0 99 -47.5 169.5t-120.5 70.5q-54 0 -86.5 -43t-32.5 -126q0 -100 47 -170.5t120 -70.5z" />
    <glyph glyph-name="one.osf" horiz-adv-x="300" 
d="M37 0v20q43 5 59.5 16t16.5 38v269q0 24 -8.5 31.5t-32.5 5.5l-42 -3v20l134 59q29 13 29 -16v-366q0 -27 16.5 -38t60.5 -16v-20h-233z" />
    <glyph glyph-name="two.osf" horiz-adv-x="493" 
d="M40 0q191 148 251.5 210t60.5 119q0 43 -27.5 74t-76.5 31q-57 0 -84.5 -30t-27.5 -68q0 -18 7 -34.5t7 -26.5q0 -23 -13.5 -33.5t-32.5 -10.5q-27 0 -42.5 22t-15.5 54q0 59 52 106t154 47q93 0 141.5 -38t48.5 -94q0 -47 -36.5 -91.5t-79.5 -71t-96.5 -57t-69.5 -43.5
l156 4q51 2 72.5 10.5t43.5 40.5h21l-7 -26q-16 -65 -8 -94h-398z" />
    <glyph glyph-name="three.osf" horiz-adv-x="548" 
d="M257 -187q-95 0 -158.5 49.5t-63.5 125.5q0 63 49 63q22 0 28.5 -10.5t12 -44.5t17.5 -63q37 -94 126 -94q67 0 107.5 47t40.5 125q0 71 -33.5 106t-85.5 35q-35 0 -81 -19l-11 27q95 32 131 59t36 85t-30.5 95t-85.5 37q-51 0 -78 -34t-27 -89q0 -57 -42 -57
q-25 0 -37.5 15.5t-12.5 40.5q0 58 54 103t154 45q94 0 143 -39t49 -101q0 -94 -128 -138q36 4 75.5 -11.5t70.5 -55.5t31 -96q0 -88 -73 -147t-178 -59z" />
    <glyph glyph-name="four.osf" horiz-adv-x="549" 
d="M252 -167v20q43 4 59.5 15.5t16.5 38.5v93h-286l-17 50l299 420l84 -16v-387h101v-67h-101v-93q0 -27 17 -38.5t60 -15.5v-20h-233zM93 67h235v366l-245 -343q-7 -10 -4 -16.5t14 -6.5z" />
    <glyph glyph-name="five.osf" horiz-adv-x="544" 
d="M257 -180q-95 0 -158.5 49t-63.5 127q0 62 49 62q22 0 28.5 -10.5t12 -44.5t17.5 -63q39 -94 126 -94q64 0 106.5 49.5t42.5 124.5q0 83 -47 141.5t-129 58.5q-93 0 -138 -68h-21l24 299h286l70 14l-11 -92h-327l-15 -181q27 28 72.5 46t93.5 18q90 0 162 -56.5
t72 -157.5q0 -95 -72 -158.5t-180 -63.5z" />
    <glyph glyph-name="six.osf" horiz-adv-x="519" 
d="M265 -10q-62 0 -108.5 25t-72 68t-37.5 94.5t-12 111.5q0 66 15.5 126t45.5 111t82.5 81t121.5 30q72 0 111 -33l-13 -19q-40 21 -77 21q-54 0 -94 -28t-61.5 -74t-31 -95t-9.5 -101q11 29 60.5 59.5t110.5 30.5q82 0 137.5 -56t55.5 -139q0 -88 -60.5 -150.5
t-163.5 -62.5zM274 16q63 0 94.5 52.5t31.5 121.5q0 75 -35.5 122t-97.5 47q-58 0 -100 -44t-42 -113q0 -71 41 -128.5t108 -57.5z" />
    <glyph glyph-name="seven.osf" horiz-adv-x="498" 
d="M95 -170l312 543h-215q-55 0 -84.5 -11.5t-47.5 -51.5h-25l45 149l74 -8h319l-314 -621h-64z" />
    <glyph glyph-name="eight.osf" horiz-adv-x="544" 
d="M263 -10q-105 0 -166.5 50.5t-61.5 131.5q0 116 132 163q-44 22 -68.5 60.5t-24.5 84.5q0 69 55.5 113t143.5 44q87 0 138.5 -43t51.5 -107q0 -91 -101 -135q70 -23 108.5 -67t38.5 -103q0 -82 -69.5 -137t-176.5 -55zM277 380q58 -16 88.5 21t30.5 91q0 50 -30 84.5
t-97 34.5q-59 0 -86.5 -30t-27.5 -75q0 -93 113 -124zM273 16q72 0 108.5 40t36.5 101q0 54 -32 85t-108 51l-13 3q-64 18 -110.5 -11.5t-46.5 -103.5q0 -69 43.5 -117t121.5 -48z" />
    <glyph glyph-name="nine.osf" horiz-adv-x="519" 
d="M254 458q62 0 108.5 -25t72 -68t37.5 -94.5t12 -111.5q0 -66 -15 -126t-45.5 -111t-83 -81t-121.5 -30q-72 0 -110 33l12 19q40 -21 77 -21q54 0 94.5 28t61.5 74.5t31 95.5t10 101q-12 -30 -61.5 -60.5t-110.5 -30.5q-82 0 -137.5 56t-55.5 140q0 87 61 149.5t163 62.5z
M246 432q-63 0 -94.5 -52.5t-31.5 -121.5q0 -74 35.5 -121.5t96.5 -47.5q59 0 100.5 44t41.5 114q0 71 -40.5 128t-107.5 57z" />
    <glyph glyph-name="zero.tf" horiz-adv-x="600" 
d="M300 -10q-80 0 -138 47t-84 119t-26 158t26 157.5t84 118.5t138 47t138 -47t84 -118.5t26 -157.5t-26 -158t-84 -119t-138 -47zM309 17q142 0 142 271q0 63 -8 117.5t-25.5 102t-50 75t-76.5 27.5q-143 0 -143 -270q0 -64 8 -118.5t25.5 -102t50 -75t77.5 -27.5z" />
    <glyph glyph-name="one.tf" horiz-adv-x="600" 
d="M173 0v20q51 5 69 16t18 38v429q0 32 -7.5 39t-34.5 5l-41 -3v19l133 62q30 13 30 -16v-535q0 -27 18 -38t69 -16v-20h-254z" />
    <glyph glyph-name="two.tf" horiz-adv-x="600" 
d="M73 0q0 52 26.5 100.5t66 83.5t85.5 72.5t85.5 69.5t66 73t26.5 83q0 52 -32 91t-92 39q-55 0 -89 -35.5t-34 -86.5q0 -22 7.5 -39.5t7.5 -27.5q0 -23 -13.5 -33t-31.5 -10q-27 0 -44 24.5t-17 61.5q0 68 55.5 119.5t161.5 51.5q101 0 156 -47t55 -125q0 -55 -32 -99
t-82.5 -76t-104 -61.5t-104.5 -70t-76 -86.5h261q57 0 83 15t43 58h20l-16 -82q-9 -47 3 -63h-441z" />
    <glyph glyph-name="three.tf" horiz-adv-x="600" 
d="M286 -10q-95 0 -158.5 49.5t-63.5 126.5q0 62 49 62q22 0 28.5 -10.5t12 -44t17.5 -62.5q35 -95 126 -95q67 0 107.5 47t40.5 125q0 71 -34 106t-86 35q-33 0 -81 -19l-10 27q95 32 131 59t36 85t-30.5 95t-85.5 37q-51 0 -78 -34t-27 -89q0 -57 -42 -57q-50 0 -50 56
q0 58 54 103t153 45q94 0 143.5 -39t49.5 -101q0 -94 -128 -138q35 4 74.5 -11.5t70.5 -55.5t31 -96q0 -88 -72.5 -147t-177.5 -59z" />
    <glyph glyph-name="four.tf" horiz-adv-x="600" 
d="M285 0v20q43 5 59.5 16t16.5 38v93h-286l-17 50l299 420l84 -16v-387h101v-67h-101v-93q0 -27 16.5 -38t60.5 -16v-20h-233zM126 234h235v366l-245 -343q-7 -11 -4 -17t14 -6z" />
    <glyph glyph-name="five.tf" horiz-adv-x="600" 
d="M286 -10q-95 0 -158.5 49.5t-63.5 126.5q0 62 49 62q22 0 28.5 -10t12 -44t17.5 -63q39 -95 125 -95q65 0 107.5 49.5t42.5 125.5q0 82 -47.5 141t-128.5 59q-93 0 -138 -69h-22l24 299h287l69 14l-10 -92h-328l-14 -181q26 29 71.5 46.5t94.5 17.5q89 0 161.5 -56.5
t72.5 -156.5q0 -95 -72 -159t-180 -64z" />
    <glyph glyph-name="six.tf" horiz-adv-x="600" 
d="M304 -10q-62 0 -108.5 25t-72 68t-37.5 94.5t-12 111.5q0 66 15 126t45.5 111t83 81t121.5 30q72 0 110 -33l-12 -19q-40 21 -77 21q-54 0 -94.5 -28t-61.5 -74t-31 -95t-10 -101q12 29 61.5 59.5t110.5 30.5q82 0 137.5 -56t55.5 -139q0 -88 -61 -150.5t-163 -62.5z
M312 16q63 0 94.5 52.5t31.5 121.5q0 74 -35.5 121.5t-96.5 47.5q-59 0 -100.5 -44t-41.5 -113q0 -72 40.5 -129t107.5 -57z" />
    <glyph glyph-name="seven.tf" horiz-adv-x="600" 
d="M140 0l313 543h-216q-55 0 -84.5 -11.5t-47.5 -51.5h-25l45 149l74 -8h320l-315 -621h-64z" />
    <glyph glyph-name="eight.tf" horiz-adv-x="600" 
d="M291 -10q-105 0 -166.5 50.5t-61.5 131.5q0 116 132 163q-43 22 -67.5 60.5t-24.5 84.5q0 69 55 113t143 44q87 0 138.5 -43t51.5 -107q0 -91 -100 -135q69 -23 107.5 -67t38.5 -103q0 -82 -69.5 -137t-176.5 -55zM305 380q58 -16 88.5 21t30.5 91q0 50 -30 84.5
t-97 34.5q-58 0 -86 -30.5t-28 -74.5q0 -93 113 -124zM301 16q72 0 108.5 40t36.5 101q0 54 -32 85t-107 51l-14 3q-64 18 -110 -11.5t-46 -103.5q0 -69 43 -117t121 -48z" />
    <glyph glyph-name="nine.tf" horiz-adv-x="600" 
d="M297 634q62 0 108.5 -25t72 -68t37.5 -94.5t12 -111.5q0 -66 -15.5 -126t-45.5 -111t-83 -81t-122 -30q-71 0 -110 33l13 19q39 -21 77 -21q54 0 94 28t61 74.5t31 95.5t10 101q-11 -30 -61 -60.5t-111 -30.5q-82 0 -137.5 56t-55.5 140q0 87 61 149.5t164 62.5zM288 608
q-63 0 -94.5 -52.5t-31.5 -121.5q0 -74 35.5 -121.5t96.5 -47.5q59 0 101 44t42 114q0 71 -41 128t-108 57z" />
    <glyph glyph-name="zero.dnom" horiz-adv-x="284" 
d="M143 -5q-53 0 -80.5 39t-27.5 91t27.5 90.5t80.5 38.5q51 0 78.5 -38.5t27.5 -90.5t-27.5 -91t-78.5 -39zM147 16q51 0 51 97q0 50 -14 85t-45 35q-53 0 -53 -96q0 -51 14.5 -86t46.5 -35z" />
    <glyph glyph-name="one.dnom" horiz-adv-x="174" 
d="M32 0v14l6 2q7 3 8.5 3.5t6.5 3.5t6.5 6t3.5 8t2 11v154h-35v16l63 31q21 11 21 -15v-186q0 -5 1 -9.5t3 -7.5t4 -5t5.5 -4.5t5 -3t6 -2.5t5.5 -2v-14h-112z" />
    <glyph glyph-name="two.dnom" horiz-adv-x="288" 
d="M40 0q6 25 16.5 44.5t28 35.5t27.5 23t30 20q15 10 22 15t14.5 17.5t7.5 27.5q0 20 -9.5 35t-30.5 15q-16 0 -28 -10.5t-12 -30.5q0 -6 2.5 -16t0.5 -17q-20 -17 -38.5 -10t-18.5 32q0 27 25 50t71 23q43 0 67 -19.5t24 -51.5q0 -17 -6 -31t-19.5 -25t-22 -16.5
t-25.5 -15.5q-70 -35 -85 -55h102q26 0 40 21h25l-10 -47q-3 -14 -21 -14h-177z" />
    <glyph glyph-name="three.dnom" horiz-adv-x="278" 
d="M132 -5q-43 0 -70 21.5t-27 53.5q0 28 24 28q14 0 19 -6t6.5 -19.5t2.5 -17.5q14 -39 48 -39q22 0 35 16.5t13 44.5q0 35 -23.5 44t-48.5 -6l-9 18l16 6q49 18 49 52q0 42 -36 42q-27 0 -35 -22.5t-1 -43.5q-23 -10 -35.5 -2t-12.5 26q0 26 23.5 44.5t63.5 18.5
q39 0 62 -17.5t23 -42.5q0 -37 -48 -53q32 -1 49.5 -19t17.5 -44q0 -36 -30.5 -59.5t-75.5 -23.5z" />
    <glyph glyph-name="four.dnom" horiz-adv-x="259" 
d="M96 0v14q21 2 28 8.5t7 25.5v20h-106v30l123 155l34 -9v-153h37v-23h-37v-20q0 -18 8 -25t29 -9v-14h-123zM64 91h67v87z" />
    <glyph glyph-name="five.dnom" horiz-adv-x="273" 
d="M132 -4q-43 0 -70 22t-27 54q0 25 24 25q14 0 19 -5.5t6.5 -18.5t2.5 -17q14 -39 48 -39q22 0 35 17t13 44q0 30 -15.5 49t-40.5 19q-23 0 -49 -21h-29l10 125h142l18 5l-10 -48h-122l-4 -58q17 23 61 23q37 0 65.5 -22.5t28.5 -62.5q0 -42 -30 -66.5t-76 -24.5z" />
    <glyph glyph-name="six.dnom" horiz-adv-x="258" 
d="M134 -5q-51 0 -75 35t-24 86q0 57 27.5 97.5t80.5 40.5q33 0 55 -15q6 -4 6 -7.5t-5 -12.5q-7 -6 -11 -3.5t-17.5 9t-26.5 6.5q-47 0 -54 -90q18 20 53 20q37 0 61 -20.5t24 -59.5t-25 -62.5t-69 -23.5zM133 16q42 0 42 57q0 27 -12 46.5t-32 19.5q-42 0 -42 -57
q0 -27 12 -46.5t32 -19.5z" />
    <glyph glyph-name="seven.dnom" 
d="M66 0l125 199h-129l-27 -17l16 60h184l-115 -242h-54z" />
    <glyph glyph-name="eight.dnom" horiz-adv-x="270" 
d="M131 -5q-42 0 -69 20.5t-27 53.5q0 49 48 61q-34 16 -34 56q0 29 23 48.5t63 19.5q38 0 60.5 -18.5t22.5 -46.5q0 -34 -32 -50q49 -22 49 -66q0 -34 -29.5 -56t-74.5 -22zM138 150q16 -5 26.5 8t10.5 33q0 43 -40 43q-37 0 -37 -40q0 -33 40 -44zM133 16q46 0 46 48
q0 43 -43 52l-10 2q-19 4 -32.5 -9.5t-13.5 -37.5q0 -23 13.5 -39t39.5 -16z" />
    <glyph glyph-name="nine.dnom" horiz-adv-x="258" 
d="M124 254q51 0 75 -34.5t24 -85.5q0 -58 -27.5 -98.5t-80.5 -40.5q-33 0 -55 15q-6 4 -6 7.5t5 12.5q7 6 11.5 3.5t18 -9t25.5 -6.5q47 0 54 90q-17 -19 -53 -19t-60.5 20.5t-24.5 58.5q0 39 25.5 62.5t68.5 23.5zM125 233q-42 0 -42 -57q0 -27 12 -46.5t32 -19.5
q42 0 42 57q0 27 -12 46.5t-32 19.5z" />
    <glyph glyph-name="zero.numr" horiz-adv-x="284" 
d="M143 374q-53 0 -80.5 39t-27.5 91t27.5 90.5t80.5 38.5q51 0 78.5 -38.5t27.5 -90.5t-27.5 -91t-78.5 -39zM147 395q51 0 51 97q0 50 -14 85t-45 35q-53 0 -53 -96q0 -51 14.5 -86t46.5 -35z" />
    <glyph glyph-name="one.numr" horiz-adv-x="174" 
d="M32 379v14l6 3q7 2 8.5 2.5t6.5 3.5t6.5 6t3.5 8t2 11v154h-35v16l63 31q21 11 21 -15v-186q0 -5 1 -9.5t3 -7.5t4 -5t5.5 -4.5t5 -3t6 -2.5t5.5 -2v-14h-112z" />
    <glyph glyph-name="two.numr" horiz-adv-x="288" 
d="M40 379q6 25 16.5 44.5t28 35.5t27.5 23t30 20q15 10 22 15t14.5 17.5t7.5 27.5q0 20 -9.5 35t-30.5 15q-16 0 -28 -10.5t-12 -30.5q0 -6 2.5 -16t0.5 -17q-20 -17 -38.5 -10t-18.5 32q0 27 25 50t71 23q43 0 67 -19.5t24 -51.5q0 -17 -6 -31t-19.5 -25t-22 -16.5
t-25.5 -15.5q-70 -35 -85 -55h102q26 0 40 21h25l-10 -47q-3 -14 -21 -14h-177z" />
    <glyph glyph-name="three.numr" horiz-adv-x="278" 
d="M132 374q-43 0 -70 21.5t-27 53.5q0 28 24 28q14 0 19 -6t6.5 -19.5t2.5 -17.5q14 -39 48 -39q22 0 35 16.5t13 44.5q0 35 -23.5 44t-48.5 -6l-9 18l16 6q49 18 49 52q0 42 -36 42q-27 0 -35 -22.5t-1 -43.5q-23 -10 -35.5 -2t-12.5 26q0 26 23.5 44.5t63.5 18.5
q39 0 62 -17.5t23 -42.5q0 -37 -48 -53q32 -1 49.5 -19t17.5 -44q0 -36 -30.5 -59.5t-75.5 -23.5z" />
    <glyph glyph-name="four.numr" horiz-adv-x="259" 
d="M96 379v14q21 2 28 8.5t7 25.5v20h-106v30l123 155l34 -9v-153h37v-23h-37v-20q0 -18 8 -25t29 -9v-14h-123zM64 470h67v87z" />
    <glyph glyph-name="five.numr" horiz-adv-x="273" 
d="M132 368q-43 0 -70 21.5t-27 53.5q0 26 24 26q14 0 19 -5.5t6.5 -18.5t2.5 -17q14 -39 48 -39q22 0 35 16.5t13 44.5q0 30 -15.5 48.5t-40.5 18.5t-49 -20h-29l10 124h142l18 5l-10 -48h-122l-4 -58q17 24 61 24q36 0 65 -23t29 -63q0 -41 -30 -65.5t-76 -24.5z" />
    <glyph glyph-name="six.numr" horiz-adv-x="258" 
d="M134 368q-51 0 -75 35t-24 86q0 57 27.5 97.5t80.5 40.5q33 0 55 -15q6 -4 6 -7.5t-5 -12.5q-7 -6 -11 -3.5t-17.5 9t-26.5 6.5q-47 0 -54 -90q18 20 53 20q37 0 61 -20.5t24 -59.5t-25 -62.5t-69 -23.5zM133 389q42 0 42 57q0 27 -12 46.5t-32 19.5q-42 0 -42 -57
q0 -27 12 -46.5t32 -19.5z" />
    <glyph glyph-name="seven.numr" 
d="M66 379l125 199h-129l-27 -17l16 60h184l-115 -242h-54z" />
    <glyph glyph-name="eight.numr" horiz-adv-x="270" 
d="M131 374q-42 0 -69 20.5t-27 53.5q0 49 48 61q-34 16 -34 56q0 29 23 48.5t63 19.5q38 0 60.5 -18.5t22.5 -46.5q0 -34 -32 -50q49 -22 49 -66q0 -34 -29.5 -56t-74.5 -22zM138 529q16 -5 26.5 8t10.5 33q0 43 -40 43q-37 0 -37 -40q0 -33 40 -44zM133 395q46 0 46 48
q0 43 -43 52l-10 2q-19 4 -32.5 -9.5t-13.5 -37.5q0 -23 13.5 -39t39.5 -16z" />
    <glyph glyph-name="nine.numr" horiz-adv-x="258" 
d="M124 633q51 0 75 -34.5t24 -85.5q0 -58 -27.5 -98.5t-80.5 -40.5q-33 0 -55 15q-6 4 -6 7.5t5 12.5q7 6 11.5 3.5t18 -9t25.5 -6.5q47 0 54 90q-17 -19 -53 -19t-60.5 20.5t-24.5 58.5q0 39 25.5 62.5t68.5 23.5zM125 612q-42 0 -42 -57q0 -27 12 -46.5t32 -19.5
q42 0 42 57q0 27 -12 46.5t-32 19.5z" />
    </font>
</defs>
</svg>
